Важное объявление!
У Нас Все раздачи мультитрекерные, при нуле пиров в релизах, можете смело вставать на закачку!
Статистика раздачи
Размер:     |    Зарегистрирован:     |    Скачан:     |   
Нет
 
     
 
 
Автор Сообщение

HUNTER

Стаж:
5 лет 1 месяц
Сообщений:
68449

Репутация: 101

[+] [-]
Вне форума [Профиль] [ЛС]

Больница / The Hospital
Страна: США
Студия: Simcha Productions
Жанр: драма, комедия
Год выпуска: 1971
Продолжительность: 01:43:04
Перевод: Профессиональный (двухголосый закадровый) НТВ+
Cубтитры: английские
Оригинальная аудиодорожка: английский
Режиссер: Артур Хиллер / Arthur Hiller
В ролях: Джордж К. Скотт, Дайана Ригг, Барнард Хьюз, Ричард А. Дайсарт, Стивен Эллиот, Дональд Херрон, Эндрю Дункан, Нэнси Марчанд, Джордан Чарни, Робертс Блоссом
Описание: Фильм повествует о истории жизни доктора Бока, главного врача в большой учебной больнице Манхэттана. Бок испытывает кризис середины жизни, кроме того его оставила жена, его лишили детей — он бессилен и уже думает о самоубийстве.
Он думает о самоубийстве в стенах больницы и наталкивается на череду якобы несчастных случаев. Некоторые больные умирают не от осложнений, а от ошибочного лечения, назначенного врачами. Люди соблюдают не тот режим, принимают ненужные лекарства, направляются в ненужные отделения хирургии — и в итоге оказываются в списке умерших от естественных причин. Доктор Бок уже не думает о самоубийстве, а пытается разгадать загадку: как сделать так, чтобы ряд причудливых смертельных случаев среди докторов и штата больницы выглядел случайным.


Sample
Тип релиза: WEB-DL 720p
Контейнер: MKV
Видео: MPEG4 AVC Video, H264, 16:9, 1280x692, 23.976 fps, 3964 kbps
Аудио: Russian (AC3, 2 ch, 192 kbps, 16 bits, 48.0 KHz) - DVO
Аудио 2: English (AC3, 2 ch, 192 kbps, 16 bits, 48.0 KHz) - оригинал
Формат субтитров: softsub (SRT)

MediaInfo

General
Unique ID : 212066590651841655178748428559335703299 (0x9F8A8A2AB32E8D848F30713992DE4303)
Complete name : K:\The Hospital 1971 WEB-DL 720p.mkv
Format : Matroska
Format version : Version 4 / Version 2
File size : 3.19 GiB
Duration : 1h 43mn
Overall bit rate : 4 436 Kbps
Encoded date : UTC 2015-10-06 18:19:25
Writing application : mkvmerge v6.1.0 ('Old Devil') built on Mar 2 2013 14:32:37
Writing library : libebml v1.3.0 + libmatroska v1.4.0
Video
ID : 1
Format : AVC
Format/Info : Advanced Video Codec
Format profile : High@L3.1
Format settings, CABAC : No
Format settings, ReFrames : 2 frames
Codec ID : V_MPEG4/ISO/AVC
Duration : 1h 43mn
Bit rate : 3 964 Kbps
Width : 1 280 pixels
Height : 692 pixels
Display aspect ratio : 1.85:1
Frame rate mode : Constant
Frame rate : 23.976 fps
Color space : YUV
Chroma subsampling : 4:2:0
Bit depth : 8 bits
Scan type : Progressive
Bits/(Pixel*Frame) : 0.187
Stream size : 2.85 GiB (89%)
Language : English
Default : Yes
Forced : No
Color primaries : BT.709
Transfer characteristics : BT.709
Matrix coefficients : BT.709
Audio #1
ID : 2
Format : AC-3
Format/Info : Audio Coding 3
Mode extension : CM (complete main)
Format settings, Endianness : Big
Codec ID : A_AC3
Duration : 1h 43mn
Bit rate mode : Constant
Bit rate : 192 Kbps
Channel count : 2 channels
Channel positions : Front: L R
Sampling rate : 48.0 KHz
Bit depth : 16 bits
Compression mode : Lossy
Stream size : 142 MiB (4%)
Language : Russian
Default : Yes
Forced : No
Audio #2
ID : 3
Format : AC-3
Format/Info : Audio Coding 3
Mode extension : CM (complete main)
Format settings, Endianness : Big
Codec ID : A_AC3
Duration : 1h 43mn
Bit rate mode : Constant
Bit rate : 192 Kbps
Channel count : 2 channels
Channel positions : Front: L R
Sampling rate : 48.0 KHz
Bit depth : 16 bits
Compression mode : Lossy
Stream size : 142 MiB (4%)
Language : English
Default : No
Forced : No
Text
ID : 4
Format : UTF-8
Codec ID : S_TEXT/UTF8
Codec ID/Info : UTF-8 Plain Text
Language : English
Default : No
Forced : No
Menu
00:00:00.000 : en:1
00:15:13.000 : en:2
00:27:31.000 : en:3
00:36:34.000 : en:4
00:54:29.000 : en:5
01:05:32.000 : en:6
01:19:41.000 : en:7
01:33:04.000 : en:8

Скриншоты


_________________
Показать сообщения:    

Текущее время: Сегодня 04:47

Часовой пояс: GMT



Вы не можете начинать темы
Вы не можете отвечать на сообщения
Вы не можете редактировать свои сообщения
Вы не можете удалять свои сообщения
Вы не можете голосовать в опросах
Вы не можете прикреплять файлы к сообщениям
Вы не можете скачивать файлы