Болт и Блип спешат на помощь / Bolt & Blip: Battle of the Lunar League (Питер Лепениотис / Peter Lepeniotis) [2012, мультфильм, фантастика, приключения, семейный, DVDRip]|DUB :: Ивановский Торрент трекер
Важное объявление!
У Нас Все раздачи мультитрекерные, при нуле пиров в релизах, можете смело вставать на закачку!
Статистика раздачи
Размер:     |    Зарегистрирован:     |    Скачан:     |   
Нет
 
     
 
 
Автор Сообщение

димитри37

Стаж:
4 года 3 месяца
Сообщений:
1236

Репутация: 127

[+] [-]
Вне форума [Профиль] [ЛС]

Болт и Блип спешат на помощь
Bolt & Blip: Battle of the Lunar League

Год выпуска: 2012
Страна: Канада, Корея Южная
Жанр: мультфильм, фантастика, приключения, семейный
Продолжительность: 01:13:44
Перевод: Профессиональный (полное дублирование)
русские субтитры: отсутствуют
Режиссёр: Питер Лепениотис : Peter Lepeniotis, Тим Дикон : Tim Deacon
Описание: 2080 год, Земля. Благодаря стараниям гениального ученого Доктора Томми на планете прекратились все войны и люди стали жить без забот! В это время на Луне роботы Болт и Блип случайно становятся членами спортивной команды «Роботы грома», которая находится на последней строчке в турнирной таблице игр Лунной Лиги. С помощью своих новых друзей Болт и Блип становятся чемпионами Лиги. Но они вдруг узнают, что Луне и Земле угрожает заклятый враг Доктора Томми — Доктор Блад. «Роботам грома» предстоит нарушить планы Доктора Блада по завоеванию вселенной и спасти Землю и Луну от уничтожения!

Качество: DVDRip
Формат: AVI
Видео кодек: XviD
Аудио кодек: AC3
Видео: 720x400 (1.80:1), 25 fps, XviD MPEG-4 ~2193 kbps avg, 0.30 bit/pixel
Аудио: 48 kHz, AC3 Dolby Digital, 3/2 (L,C,R,l,r) + LFE ch, ~448 kbps

AviInfo

File: Bolt & Blip Battle of the Lunar League.2012.DVDRip.DUB.avi
Category: Anime
Filesize: 1398.71 Mb ( 1 466 654 720 bytes )
Play length: 01:13:44.879 (110622 frames)
Subtitles: Not Present
Video: 720x400 (1.80:1), 25 fps, XviD MPEG-4 ~2193 kbps avg, 0.30 bit/pixel
Audio: 48 kHz, AC3 Dolby Digital, 3/2 (L,C,R,l,r) + LFE ch, ~448 kbps

MediaInfo

Общее
Полное имя : D:\Болт и Блип спешат на помощь\Bolt & Blip Battle of the Lunar League.2012.DVDRip.DUB.avi
Формат : AVI
Формат/Информация : Audio Video Interleave
Размер файла : 1,37 Гбайт
Продолжительность : 1 ч. 13 м.
Общий поток : 2652 Кбит/сек
Программа кодирования : VirtualDubMod 1.5.10.2 (build 2540/release)
Формат оригинала/Имя : Anime
Видео
Идентификатор : 0
Формат : MPEG-4 Visual
Профиль формата : Advanced Simple@L5
Параметр BVOP формата : 2
Параметр QPel формата : Нет
Параметр GMC формата : Без точки перехода
Параметр матрицы формата : Выборочная
Идентификатор кодека : XVID
Идентификатор кодека/Подсказка : XviD
Продолжительность : 1 ч. 13 м.
Битрейт : 2194 Кбит/сек
Ширина : 720 пикселей
Высота : 400 пикселей
Соотношение сторон : 16:9
Частота кадров : 25,000 кадров/сек
Цветовое пространство : YUV
Субдискретизация насыщенности : 4:2:0
Битовая глубина : 8 бит
Тип развёртки : Прогрессивная
Метод сжатия : С потерями
Бит/(Пиксели*Кадры) : 0.305
Размер потока : 1,13 Гбайт (83%)
Библиотека кодирования : XviD 64
Аудио
Идентификатор : 1
Формат : AC-3
Формат/Информация : Audio Coding 3
Расширение режима : CM (complete main)
Идентификатор кодека : 2000
Продолжительность : 1 ч. 13 м.
Вид битрейта : Постоянный
Битрейт : 448 Кбит/сек
Каналы : 6 каналов
Расположение каналов : Front: L C R, Side: L R, LFE
Частота : 48,0 КГц
Битовая глубина : 16 бит
Метод сжатия : С потерями
Размер потока : 236 Мбайт (17%)
Выравнивание : Разделение по промежуткам
Продолжительность промежутка : 40 мс. (1,00 видеокадр)
Время предзагрузки промежутка : 500 мс.
Показать сообщения:    

Текущее время: Сегодня 11:03

Часовой пояс: GMT



Вы не можете начинать темы
Вы не можете отвечать на сообщения
Вы не можете редактировать свои сообщения
Вы не можете удалять свои сообщения
Вы не можете голосовать в опросах
Вы не можете прикреплять файлы к сообщениям
Вы не можете скачивать файлы