Ивановский Торрент трекер
Яндекс.Погода
 

[Цитировать]
HUNTER

Болотное чудовище / Болотная тварь / Swamp Thing [Unrated]
Год выпуска: 1982
Страна: США
Жанр: ужасы, фантастика
Продолжительность: 01:32:51
Перевод1: Профессиональный (многолосый закадровый)
Перевод2: Профессиональный (многолосый закадровый)(ТВ3)
Перевод3: Одноголосый (закадровый)(А.Васильев)
Субтитры: английские
Оригинальная аудиодорожка: английский
Режиссер: Уэс Крэйвен / Wes Craven
В ролях: Луи Журдан, Эдриэнн Барбо, Рэй Уайз, Дэвид Хесс, Николас Уорт, Дон Найт
Описание: Фильм повествует историю о том, как группа ученых объединяет усилия, для создания специального состава, заставляет растения, расти с огромной скоростью и таким способом избавить мир от голода, проблем связанных с вырубкой лесов и многого другого. Однако они и не подозревают, что есть люди, которые планируют использовать эту формулу в своих корыстных целях. В результате несчастного случая доктор Алек Холланд превращается в монстра — получеловека-полурастение. Но, даже не смотря на это, он продолжает любить свою возлюбленную. И теперь должен защитить её от козней своего бывшего коллеги доктора Антона Аркэйна и не дать ему использовать формулу во зло.

Качество: BDRemux 1080p
Формат: MKV
Видео кодек: H.264
Аудио кодек: AC3, FLAC
Видео: 1920 x 1080 / MPEG-4 AVC Video / 24900 kbps / 1080p / 23.976 fps / 16:9 / High Profile 4.1
Аудио1: Русский / AC3 / 2.0 / 192 Kbps / 48,0 kHz(MVO)
Аудио2: Русский / AC3 / 2.0 / 192 Kbps / 48,0 kHz(MVO TV3)
Аудио3: Русский / AC3 / 2.0 / 192 Kbps / 48,0 kHz(Vasilyev)
Аудио4: English / FLAC / 2.0 / 48 kHz / ~325 kbps (Original)
Субтитры: Soft Sub (SRT)
Главы

MediaInfo

Общее
Уникальный идентификатор : 209984149765179530549688846125017975680 (0x9DF979E77403E80EB5AA9CD3A64DCB80)
Полное имя : D:\Swamp.Thing.1982.BDRemux.1080p.3xRus.Eng.mkv
Формат : Matroska
Версия формата : Version 4 / Version 2
Размер файла : 16,7 Гбайт
Продолжительность : 1 ч. 32 м.
Режим общего битрейта : Переменный
Общий поток : 25,8 Мбит/сек
Название фильма : Swamp Thing
Дата кодирования : UTC 2016-02-21 07:37:02
Программа кодирования : mkvmerge v7.3.0 ('Nouages') 32bit built on Oct 22 2014 18:44:01
Библиотека кодирования : libebml v1.3.0 + libmatroska v1.4.1
DURATION : 01:32:51.264000000
NUMBER_OF_FRAMES : 65289
NUMBER_OF_BYTES : 226603140
_STATISTICS_WRITING_APP : mkvmerge v7.3.0 ('Nouages') 32bit built on Oct 22 2014 18:44:01
_STATISTICS_WRITING_DATE_UTC : 2016-02-21 07:37:02
_STATISTICS_TAGS : BPS DURATION NUMBER_OF_FRAMES NUMBER_OF_BYTES
Видео
Идентификатор : 1
Формат : AVC
Формат/Информация : Advanced Video Codec
Профиль формата : High@L4.1
Параметр CABAC формата : Да
Параметр ReFrames формата : 2 кадра
Параметр GOP формата : M=1, N=5
Идентификатор кодека : V_MPEG4/ISO/AVC
Продолжительность : 1 ч. 32 м.
Вид битрейта : Переменный
Максимальный битрейт : 30,2 Мбит/сек
Ширина : 1920 пикселей
Высота : 1080 пикселей
Соотношение сторон : 16:9
Режим частоты кадров : Постоянный
Частота кадров : 23,976 кадра/сек
Цветовое пространство : YUV
Субдискретизация насыщенности : 4:2:0
Битовая глубина : 8 бит
Тип развёртки : Прогрессивная
Заголовок : Swamp Thing 1982 Unrated 1080p GER Blu-ray AVC DTS-HD MA 2.0-GOREHOUNDS
Default : Нет
Forced : Нет
Аудио #1
Идентификатор : 2
Формат : AC-3
Формат/Информация : Audio Coding 3
Расширение режима : CM (complete main)
Параметр Endianness формата : Big
Идентификатор кодека : A_AC3
Продолжительность : 1 ч. 32 м.
Вид битрейта : Постоянный
Битрейт : 192 Кбит/сек
Каналы : 2 канала
Расположение каналов : Front: L R
Частота : 48,0 КГц
Метод сжатия : С потерями
Размер потока : 128 Мбайт (1%)
Заголовок : MVO AC3 2.0 192 kbps
Язык : Russian
Default : Нет
Forced : Нет
Аудио #2
Идентификатор : 3
Формат : AC-3
Формат/Информация : Audio Coding 3
Расширение режима : CM (complete main)
Параметр Endianness формата : Big
Идентификатор кодека : A_AC3
Продолжительность : 1 ч. 32 м.
Вид битрейта : Постоянный
Битрейт : 192 Кбит/сек
Каналы : 2 канала
Расположение каналов : Front: L R
Частота : 48,0 КГц
Метод сжатия : С потерями
Размер потока : 128 Мбайт (1%)
Заголовок : MVO TV3 AC3 2.0 192 kbps
Язык : Russian
Default : Нет
Forced : Нет
Аудио #3
Идентификатор : 4
Формат : AC-3
Формат/Информация : Audio Coding 3
Расширение режима : CM (complete main)
Параметр Endianness формата : Big
Идентификатор кодека : A_AC3
Продолжительность : 1 ч. 32 м.
Вид битрейта : Постоянный
Битрейт : 192 Кбит/сек
Каналы : 2 канала
Расположение каналов : Front: L R
Частота : 48,0 КГц
Метод сжатия : С потерями
Размер потока : 128 Мбайт (1%)
Заголовок : Vasilyev AC3 2.0 192 kbps
Язык : Russian
Default : Нет
Forced : Нет
Аудио #4
Идентификатор : 5
Формат : FLAC
Формат/Информация : Free Lossless Audio Codec
Идентификатор кодека : A_FLAC
Продолжительность : 1 ч. 32 м.
Вид битрейта : Переменный
Каналы : 2 канала
Частота : 48,0 КГц
Битовая глубина : 16 бит
Заголовок : Original FLAC 2.0 ~325 kbps
Библиотека кодирования : libFLAC 1.2.1 (UTC 2007-09-17)
Язык : English
Default : Нет
Forced : Нет
Текст
Идентификатор : 6
Формат : UTF-8
Идентификатор кодека : S_TEXT/UTF8
Идентификатор кодека/Информация : UTF-8 Plain Text
Язык : English
Default : Нет
Forced : Нет
Меню
00:00:00.000 : en:00:00:00.000
00:02:28.231 : en:00:02:28.231
00:09:20.894 : en:00:09:20.894
00:15:32.098 : en:00:15:32.098
00:25:33.365 : en:00:25:33.365
00:35:46.561 : en:00:35:46.561
00:45:52.458 : en:00:45:52.458
00:56:33.473 : en:00:56:33.473
01:01:54.920 : en:01:01:54.920
01:07:54.362 : en:01:07:54.362
01:19:28.097 : en:01:19:28.097
01:30:41.436 : en:01:30:41.436

Скриншоты



Показать сообщения:    

Текущее время: 22-Окт 21:40

Часовой пояс: UTC - 1


Вы не можете начинать темы
Вы не можете отвечать на сообщения
Вы не можете редактировать свои сообщения
Вы не можете удалять свои сообщения
Вы не можете голосовать в опросах
Вы не можете прикреплять файлы к сообщениям
Вы не можете скачивать файлы

!ВНИМАНИЕ!
Сайт не предоставляет электронные версии произведений, а занимается лишь коллекционированием и каталогизацией ссылок, присылаемых и публикуемых на форуме нашими читателями. Если вы являетесь правообладателем какого-либо представленного материала и не желаете, чтобы ссылка на него находилась в нашем каталоге, свяжитесь с нами, и мы незамедлительно удалим ее. Файлы для обмена на трекере предоставлены пользователями сайта, и администрация не несет ответственности за их содержание. Просьба не заливать файлы, защищенные авторскими правами, а также файлы нелегального содержания!