Важное объявление!
У Нас Все раздачи мультитрекерные, при нуле пиров в релизах, можете смело вставать на закачку!
Статистика раздачи
Размер:     |    Зарегистрирован:     |    Скачан:     |   
Нет
 
     
 
 
Автор Сообщение

HUNTER

Стаж:
5 лет 1 месяц
Сообщений:
68439

Репутация: 101

[+] [-]
Вне форума [Профиль] [ЛС]

Боец из Кентукки / The Fighting Kentuckian-
Год выпуска: 1949
Страна: США
Жанр: вестерн
Продолжительность: 01:40:27
Перевод: Авторский (одноголосый закадровый) Сергей Кузнецов ("Светла")
Оригинальная аудиодорожка: Английская
Cубтитры: нет-Режиссер: Джордж Вагнер / George Waggner
В ролях: Джон Уэйн, Вера Ралстон, Филип Дорн, Оливер Харди, Мари Уиндсор, Джон Ховард, Хуго Хаас, Грант Виттерс, Одетт Мертил, Пол Фикс-Описание:
Эта картина снята по мотивам малоизвестного эпизода из американской истории. После того как Наполеон потерпел поражение в битве при Ватерлоо, его офицеры с семьями были изгнаны из Франции за их преданность своему императору. Они искали страну, где смогли бы жить дальше и Соединенные Штаты великодушно предложили им свою землю.
На территории штата Алабама переселенцы получили место для своих четырех городов, которые поднялись среди пустынных мест. В это время, сделав небольшую остановку в городке французских поселенцев Мобеле, кентуккийский полк добровольцев возвращался из очередного похода. Утром отряд продолжил свой марш — впереди было еще шестьсот миль пути, но бравый солдат Джон Брин, решил уклониться от дальнейшего следования в родной штат, предпочтя армии знакомство с Флеретт, дочерью местного управляющего.
Смело сев в ее повозку, он, буквально в считанные секунды, влюбил в себя девицу и уже через минуту они мчались из города навстречу грядущей судьбе. Но зоркий папаша девушки был совсем другого мнения о будущем дочери и бросился в погоню. Так начались новые приключения Джона Брина — бойца из Кентукки на просторах штата Алабама…-За дорожку спасибо AlekceyR76.
| IMDb | Сэмпл-Качество: BDRip 720p (Codres)
Контейнер: MKV
Видео: x264, 960x720 (1.33:1), 23.976 fps, 5442 kbps
Аудио 1: Русский AС3, 2.0, 48 kHz, 192 kbps
Аудио 2: Английский DTS 1.0, 48 kHz, 768 kbps
Формат субтитров: softsub (SRT)
СкриншотыMI
General
Unique ID : 181824325871911059639257020145291839044 (0x88CA1764C6B8B545A58A4F3B84B94644)
Complete name : The.Fighting.Kentuckian.1949.720p.BluRay.x264-Codres.mkv
Format : Matroska
Format version : Version 2
File size : 4.49 GiB
Duration : 1h 40mn
Overall bit rate : 6 405 Kbps
Movie name : The Fighting Kentuckian / Боец из Кентукки (1949) – RuTarcker
Encoded date : UTC 2014-06-04 14:43:46
Writing application : mkvmerge v6.1.0 ('Old Devil') built on Mar 2 2013 14:32:37
Writing library : libebml v1.3.0 + libmatroska v1.4.0
Attachment : Yes
Video
ID : 1
Format : AVC
Format/Info : Advanced Video Codec
Format profile : High@L4.1
Format settings, CABAC : Yes
Format settings, ReFrames : 6 frames
Codec ID : V_MPEG4/ISO/AVC
Duration : 1h 40mn
Bit rate : 5 442 Kbps
Width : 960 pixels
Height : 720 pixels
Display aspect ratio : 4:3
Frame rate mode : Constant
Frame rate : 23.976 fps
Color space : YUV
Chroma subsampling : 4:2:0
Bit depth : 8 bits
Scan type : Progressive
Bits/(Pixel*Frame) : 0.328
Stream size : 3.73 GiB (83%)
Title : The.Fighting.Kentuckian.1949.720p.BluRay.x264-Codres
Writing library : x264 core 140 r2377 1ca7bb9
Encoding settings : cabac=1 / ref=7 / deblock=1:-2:-2 / analyse=0x3:0x113 / me=umh / subme=11 / psy=1 / psy_rd=1.00:0.00 / mixed_ref=1 / me_range=64 / chroma_me=1 / trellis=2 / 8x8dct=1 / cqm=0 / deadzone=21,11 / fast_pskip=0 / chroma_qp_offset=-2 / threads=6 / lookahead_threads=1 / sliced_threads=0 / nr=0 / decimate=1 / interlaced=0 / bluray_compat=0 / constrained_intra=0 / bframes=10 / b_pyramid=1 / b_adapt=2 / b_bias=0 / direct=3 / weightb=1 / open_gop=0 / weightp=2 / keyint=240 / keyint_min=23 / scenecut=40 / intra_refresh=0 / rc_lookahead=64 / rc=2pass / mbtree=1 / bitrate=5442 / ratetol=1.0 / qcomp=0.60 / qpmin=10 / qpmax=51 / qpstep=4 / cplxblur=20.0 / qblur=0.5 / ip_ratio=1.40 / aq=1:1.00
Language : English
Default : Yes
Forced : No
Audio #1
ID : 2
Format : AC-3
Format/Info : Audio Coding 3
Mode extension : CM (complete main)
Format settings, Endianness : Big
Codec ID : A_AC3
Duration : 1h 40mn
Bit rate mode : Constant
Bit rate : 192 Kbps
Channel(s) : 2 channels
Channel positions : Front: L R
Sampling rate : 48.0 KHz
Bit depth : 16 bits
Compression mode : Lossy
Stream size : 138 MiB (3%)
Title : AVO – C. Кузнецов ("Светла")
Language : Russian
Default : Yes
Forced : No
Audio #2
ID : 3
Format : DTS
Format/Info : Digital Theater Systems
Mode : 16
Format settings, Endianness : Big
Codec ID : A_DTS
Duration : 1h 40mn
Bit rate mode : Constant
Bit rate : 768 Kbps
Channel(s) : 1 channel
Channel positions : Front: C
Sampling rate : 48.0 KHz
Bit depth : 24 bits
Compression mode : Lossy
Stream size : 552 MiB (12%)
Title : Original
Language : English
Default : No
Forced : No
Menu
00:00:00.000 : en:Chapter 1
00:14:26.657 : en:Chapter 2
00:27:52.421 : en:Chapter 3
00:43:53.631 : en:Chapter 4
00:54:22.759 : en:Chapter 5
01:02:54.521 : en:Chapter 6
01:12:20.753 : en:Chapter 7
01:22:54.178 : en:Chapter 8

_________________
Показать сообщения:    

Текущее время: Сегодня 10:00

Часовой пояс: GMT



Вы не можете начинать темы
Вы не можете отвечать на сообщения
Вы не можете редактировать свои сообщения
Вы не можете удалять свои сообщения
Вы не можете голосовать в опросах
Вы не можете прикреплять файлы к сообщениям
Вы не можете скачивать файлы