Ивановский Торрент трекер
Яндекс.Погода
 

[Цитировать]
HUNTER

Боевая раскраска / War Paint- Страна: США
Студия: Bel-Air Productions, K-B Productions | United Artists
Жанр: приключения, вестерн, военный
Год выпуска: 1953
Продолжительность: 01:21:59-Перевод: Профессиональный (двухголосый закадровый) НТВ+
Cубтитры: нет
Оригинальная аудиодорожка: английский-Режиссер: Лесли Селандер / Lesley Selander
В ролях: Роберт Стэк, Джоан Тейлор, Чарльз МакГроу, Кит Ларсен, Питер Грейвз, Роберт Дж. Уилки, Уолтер Рид, Джон Дусетт, Дуглас Кеннеди, Чарльз Нолт...- | Релиз: -Описание: Лейтенанту Биллингсу, возглавляющему армейский патруль, приказывают доставить новый мирный договор уполномоченному по делам индейцев, но тот отсутствует. У солдат остаётся всего девять дней, чтобы передать договор вождю Серое Облако, иначе начнётся война. Сын вождя, Тэслик, вызывается сопровождать их. Но вода заканчивается, ситуация становится безысходной.-Семпл: http://sendfile.su/1175277-Тип релиза: HDTV 1080i
Контейнер: TS
Видео: 1920x1080 (16:9), 25.000 fps, AVC, ~8198 kbps, 0.157 bits/pixel
Аудио 1: Русский, 48.0 KHz, MPEG-1 Audio layer 2, 2 ch, 192 kbps
Аудио 2: English, 48.0 KHz, MPEG-1 Audio layer 2, 2 ch, 192 kbps

MediaInfo

GeneralID : 1 (0x1)Complete name : War Paint 1953 MGMHD 1080i.rus.eng.tsFormat : MPEG-TSFile size : 5.17 GiBDuration : 1h 21mnOverall bit rate mode : VariableOverall bit rate : 9 032 KbpsMaximum Overall bit rate : 35.5 Mbps
VideoID : 4113 (0x1011)Menu ID : 1 (0x1)Format : AVCFormat/Info : Advanced Video CodecFormat profile : Main@L4Format settings, CABAC : YesFormat settings, ReFrames : 4 framesFormat settings, GOP : M=4, N=28Codec ID : 27Duration : 1h 21mnBit rate : 8 198 KbpsWidth : 1 920 pixelsHeight : 1 080 pixelsDisplay aspect ratio : 16:9Frame rate : 25.000 fpsStandard : ComponentColor space : YUVChroma subsampling : 4:2:0Bit depth : 8 bitsScan type : InterlacedScan order : Top Field FirstBits/(Pixel*Frame) : 0.158Stream size : 4.69 GiB (91%)Color range : LimitedColor primaries : BT.709Transfer characteristics : BT.709Matrix coefficients : BT.709
Audio #1ID : 4352 (0x1100)Menu ID : 1 (0x1)Format : MPEG AudioFormat version : Version 1Format profile : Layer 2Codec ID : 4Duration : 1h 21mnBit rate mode : ConstantBit rate : 192 KbpsChannel(s) : 2 channelsSampling rate : 48.0 KHzCompression mode : LossyStream size : 113 MiB (2%)Language : Russian
Audio #2ID : 4353 (0x1101)Menu ID : 1 (0x1)Format : MPEG AudioFormat version : Version 1Format profile : Layer 2Codec ID : 4Duration : 1h 21mnBit rate mode : ConstantBit rate : 192 KbpsChannel(s) : 2 channelsSampling rate : 48.0 KHzCompression mode : LossyStream size : 113 MiB (2%)Language : English

Скриншоты

Показать сообщения:    

Текущее время: 20-Сен 17:30

Часовой пояс: UTC - 1


Вы не можете начинать темы
Вы не можете отвечать на сообщения
Вы не можете редактировать свои сообщения
Вы не можете удалять свои сообщения
Вы не можете голосовать в опросах
Вы не можете прикреплять файлы к сообщениям
Вы не можете скачивать файлы

!ВНИМАНИЕ!
Сайт не предоставляет электронные версии произведений, а занимается лишь коллекционированием и каталогизацией ссылок, присылаемых и публикуемых на форуме нашими читателями. Если вы являетесь правообладателем какого-либо представленного материала и не желаете, чтобы ссылка на него находилась в нашем каталоге, свяжитесь с нами, и мы незамедлительно удалим ее. Файлы для обмена на трекере предоставлены пользователями сайта, и администрация не несет ответственности за их содержание. Просьба не заливать файлы, защищенные авторскими правами, а также файлы нелегального содержания!