Боб строитель: Занесенные снегом (Зимние игры в Баблсберге) / Bob the Builder: Snowed Under (Сара Болл / Sarah Ball) [2004, Великобритания, Семейный, мультфильм, DVD5 (Custom)] Dub :: Ивановский Торрент трекер
Важное объявление!
У Нас Все раздачи мультитрекерные, при нуле пиров в релизах, можете смело вставать на закачку!
Статистика раздачи
Размер:     |    Зарегистрирован:     |    Скачан:     |   
Нет
 
     
 
 
Автор Сообщение

HUNTER

Стаж:
4 года 11 месяцев
Сообщений:
66054

Репутация: 101

[+] [-]
Вне форума [Профиль] [ЛС]

Боб строитель: Занесенные снегом (Зимние игры в Баблсберге)
Bob the Builder: Snowed Under

Страна: Великобритания
Жанр: Семейный, мультфильм
Продолжительность: 00:52:38
Год выпуска: 2004
Перевод: Профессиональный (дублированный)
Русские субтитры: нет
Режиссёр: Сара Болл / Sarah BallОписание: Боб-строитель и его команда машин отправляются в Баблсберг, где будут проходить зимние спортивные соревнования. Им нужно построить домик для мэра города. Но случается непредвиденное: снежный буран засыпал снегом все дороги, и специальные машины, которые должны были построить спортивные площадки и лыжную трассу, не могут прибыть на место. Соревнования под угрозой срыва. И тогда машины Боба под руководством Скупа берутся сами построить все необходимые сооружения. Удастся ли им вовремя справиться с необычной для них работой?Доп. материалы: Трейлеры, фотогалерея
Качество: DVD5 (Custom)
Формат: DVD-video
Видео: MPEG-2 PAL, 16:9, 720x576, 25fps, ~8000 Kb/s
Аудио: AC3, 48khz, 2ch, 192 kb/s, (Русский)
Субтитры: отсутствуют
DVDInfo
Title: Bob The Builder - Snowed Unde DVD5Size: 3.36 Gb ( 3 528 436,00 KBytes ) - DVD-5Enabled regions: 1, 2, 3, 4, 5, 6, 7, 8
VTS_01 : Play Length: 00:52:38+00:03:40 Video: PAL 16:9 (720x576) VBR, Auto Letterboxed Audio: Russian (Dolby AC3, 2 ch) Subtitles: Not specified
VTS_02 : Play Length: 00:00:41+00:00:30+00:00:42+{00:01:53} Video: PAL 4:3 (720x576) VBR Audio: English (Dolby AC3, 2 ch)
* Menus Information *
VIDEO_TS MenuVideo: PAL 4:3 (720x576) VBRAudio: Not specified (Dolby AC3, 2 ch)Nederlands Language Unit : Title Menu
VTS_01 MenuVideo: PAL 16:9 (720x576) VBR Auto LetterboxedAudio: Not specified (Dolby AC3, 2 ch)Nederlands Language Unit : Root Menu Subpicture Menu
VTS_02 MenuVideo: NTSC 4:3 (720x480) VBR Auto Pan&Scan, Auto LetterboxedNederlands Language Unit : Root Menu

MediaInfo

ОбщееПолное имя : D:\MULTFILMS\Bob The Builder - Snowed Unde DVD5\VIDEO_TS\VTS_01_1.VOBФормат : MPEG-PSРазмер файла : 1024 МбайтПродолжительность : 17 м.Режим общего битрейта : ПеременныйОбщий поток : 8334 Кбит/сек
ВидеоИдентификатор : 224 (0xE0)Формат : MPEG VideoВерсия формата : Version 2Профиль формата : Main@MainПараметр BVOP формата : ДаПараметр матрицы формата : По умолчаниюПараметр GOP формата : M=5, N=26Структура изображения : FieldПродолжительность : 17 м.Вид битрейта : ПеременныйБитрейт : 8000 Кбит/секШирина : 720 пикселейВысота : 576 пикселейСоотношение сторон : 2,40:1Частота кадров : 25,000 кадров/секСтандарт вещания : PALЦветовое пространство : YUVСубдискретизация насыщенности : 4:2:0Битовая глубина : 8 битТип развёртки : ЧересстрочнаяПорядок развёртки : Верхнее поле первоеМетод сжатия : С потерямиБит/(Пиксели*Кадры) : 0.772Временной код первого кадра : 00:09:59:12Оригинал временного кода : Group of pictures headerGOP, открыто/закрыто : ОткрытоРазмер потока : 980 Мбайт (96%)Основные цвета : BT.601 PALХарактеристики трансфера : BT.470 System B, BT.470 System GКоэффициенты матрицы : BT.601
АудиоИдентификатор : 189 (0xBD)-128 (0x80)Формат : AC-3Формат/Информация : Audio Coding 3Расширение режима : CM (complete main)Параметр Endianness формата : BigРежим смешивания : DVD-VideoПродолжительность : 17 м.Вид битрейта : ПостоянныйБитрейт : 192 Кбит/секКаналы : 2 каналаРасположение каналов : Front: L RЧастота : 48,0 КГцМетод сжатия : С потерямиРазмер потока : 23,6 Мбайт (2%)
Меню

Скриншоты меню

Скриншоты



Информация по сборке

Диск собран из голландского DVD, нидерландская аудиодорожка заменена на русскую.
Используемый софт:
BeSweet+BeLight (Распаковка звука в формат wav)
Adobe Audition (Синхронизация аудио)
Minnetonka Audio (Конвертация звука в формат Dolby AC3)
PgcDemux (Разборка диска)
MuxMan (Сборка диска)
Adobe Photoshop (Редактирование пунктов меню)
DVDSubEdit (Редактирование подсветки кнопок меню)
DVDRemakePro (Реавторинг DVD)

_________________
Показать сообщения:    

Текущее время: Сегодня 02:00

Часовой пояс: GMT



Вы не можете начинать темы
Вы не можете отвечать на сообщения
Вы не можете редактировать свои сообщения
Вы не можете удалять свои сообщения
Вы не можете голосовать в опросах
Вы не можете прикреплять файлы к сообщениям
Вы не можете скачивать файлы