Ивановский Торрент трекер
Яндекс.Погода
 

[Цитировать]
HUNTER

Блю / Blue
Страна: США
Студия: Kettledrum Productions / Paramount Pictures
Жанр: Мелодрама, вестерн
Год выпуска: 1968
Продолжительность: 1:47:59
Перевод: Профессиональный (многоголосый закадровый)
Cубтитры: нет
Оригинальная аудиодорожка: нет
Режиссер: Сильвио Нариззано / Silvio Narizzano
В ролях: Теренс Стэмп, Джоанна Петтет, Карл Молден, Статхис Гиаллелис, Сэлли Кёркленд, Роберт Липтон, Рикардо Монтальбан,Sara Vardi, Джеймс Уэстерфилд, Кевин Коркоран
Описание: Эта история рассказывает о светловолосом мальчике, которого приютила семья мексиканцев. События разворачиваются так, что повзрослевший герой вынужден вступить в столкновение со своими недавними покровителями. Теперь он — спокойный, уравновешенный и терпеливый… Он обращается со своими земляками с почтением и достоинством… Он живет тихой, спокойной жизнью: занимается садоводством и старается корректно остужать пыл горячих парней, которые пытаются его задирать… Но он не всегда был таким.
Когда-то Блю был отъявленным бандитом, безжалостным убийцей и грабителем… И вот однажды прошлое бесцеремонно снесёт с петель дверь его новой, благообразной жизни: в воздухе снова запахнет порохом, и городской морг начнет работать круглосуточно.
Доп. информация: Запись с канала Paramount Channel HD RUS
Сэмпл: http://multi-up.com/962506
Тип релиза: HDTV 1080i
Контейнер: TS
Видео: 4491 Кбит/сек, MPEG4 Video (H264) 1920x1080 (16:9) 25fps
Аудио: MPEG Audio 48000Hz stereo Layer 2 192kbps

MediaInfo

Общее
Идентификатор : 1 (0x1)
Полное имя : I:\Блю (Blue) [1968] (RU) [Paramount Channel HD].ts
Формат : MPEG-TS
Размер файла : 3,72 Гбайт
Продолжительность : 1 ч. 47 м.
Режим общего битрейта : Переменный
Общий поток : 4928 Кбит/сек
Видео
Идентификатор : 69 (0x45)
Идентификатор меню : 1 (0x1)
Формат : AVC
Формат/Информация : Advanced Video Codec
Профиль формата : High@L4.0
Параметр CABAC формата : Да
Параметр ReFrames формата : 4 кадра
Идентификатор кодека : 27
Продолжительность : 1 ч. 47 м.
Вид битрейта : Переменный
Битрейт : 4491 Кбит/сек
Максимальный битрейт : 5000 Кбит/сек
Ширина : 1920 пикселей
Высота : 1080 пикселей
Соотношение сторон : 16:9
Режим частоты кадров : Переменный
Цветовое пространство : YUV
Субдискретизация насыщенности : 4:2:0
Битовая глубина : 8 бит
Тип развёртки : MBAFF
Размер потока : 3,39 Гбайт (91%)
Аудио
Идентификатор : 68 (0x44)
Идентификатор меню : 1 (0x1)
Формат : MPEG Audio
Версия формата : Version 1
Профиль формата : Layer 2
Идентификатор кодека : 3
Продолжительность : 1 ч. 47 м.
Вид битрейта : Постоянный
Битрейт : 192 Кбит/сек
Каналы : 2 канала
Частота : 48,0 КГц
Метод сжатия : С потерями
Размер потока : 148 Мбайт (4%)
Язык : Russian


Показать сообщения:    

Текущее время: 11-Дек 00:35

Часовой пояс: UTC ± 0


Вы не можете начинать темы
Вы не можете отвечать на сообщения
Вы не можете редактировать свои сообщения
Вы не можете удалять свои сообщения
Вы не можете голосовать в опросах
Вы не можете прикреплять файлы к сообщениям
Вы не можете скачивать файлы

!ВНИМАНИЕ!
Сайт не предоставляет электронные версии произведений, а занимается лишь коллекционированием и каталогизацией ссылок, присылаемых и публикуемых на форуме нашими читателями. Если вы являетесь правообладателем какого-либо представленного материала и не желаете, чтобы ссылка на него находилась в нашем каталоге, свяжитесь с нами, и мы незамедлительно удалим ее. Файлы для обмена на трекере предоставлены пользователями сайта, и администрация не несет ответственности за их содержание. Просьба не заливать файлы, защищенные авторскими правами, а также файлы нелегального содержания!