Блудные дети / Серии: 01-12 из 12 (Андрей Красавин) [2009, Драма, HDTV 1080i] :: Ивановский Торрент трекер
Важное объявление!
У Нас Все раздачи мультитрекерные, при нуле пиров в релизах, можете смело вставать на закачку!
Статистика раздачи
Размер:     |    Зарегистрирован:     |    Скачан:     |   
Нет
 
     
 
 
Автор Сообщение

димитри37

Стаж:
4 года 3 месяца
Сообщений:
1236

Репутация: 127

[+] [-]
Вне форума [Профиль] [ЛС]

Блудные дети
Год выпуска: 2009
Производство: Россия, Star Media
Жанр: Драма
Продолжительность: 00:45:00
Субтитры: Отсутствуют
Режиссёр: Андрей Красавин
В ролях: Виктория Толстоганова, Елена Панова, Александр Пороховщиков, Дмитрий Иосифов, Дмитрий Поднозов, Виктория Исакова, Владислав Абашин, Дмитрий Шаракоис, Мария Звонарева, Игорь Черневич, Константин Милованов, Наталья Бурмистрова, Игорь Сергеев, Елена Стулова, Сурен Вартанов, Саша Дробитько, Светлана Устинова и другие.
Описание: В небольшом российском городке началась история семьи Морозовых, в которой, как в зеркале, отразились последние двадцать бурных лет жизни России. Мать - детдомовка; отец - бывший военный, теперь—мелкий предприниматель и пьяница. Из троих детей: вся любовь и внимание - отличнице Лидии, равнодушие – покорной Галине, откровенное презрение – своенравному Тарасу. Из этого клубка страстей, обид и непонимания потянулись сюжетные нити судеб семьи Морозовых.

Рип чистый. Без посторонних надписей. Выкладывается как есть.
Качество: HDTV 1080i
Контейнер: TS
Видео кодек: AVC
Аудио кодек: AC3
Видео: 1920x1080 (16:9) 25.000 fps 7 852 Kbps, 0.151 bit/pixel
Аудио: MPEG Audio 48000Hz stereo 192 Кбит/сек

Скриншоты


MI

GeneralID : 1 (0x1)Complete name : J:\ВЫКЛАДКА\HDTV\Сериалы\Блудные дети (2009, Сериал, Драма, HDTV) (MYDIMKA)\01 серия.tsFormat : MPEG-TSFile size : 2.64 GiBDuration : 44mn 44sOverall bit rate mode : VariableOverall bit rate : 8 437 Kbps
VideoID : 2911 (0xB5F)Menu ID : 1 (0x1)Format : AVCFormat/Info : Advanced Video CodecFormat profile : High@L4.0Format settings, CABAC : YesFormat settings, ReFrames : 3 framesFormat settings, GOP : M=3, N=30Codec ID : 27Duration : 44mn 44sBit rate : 7 826 KbpsWidth : 1 920 pixelsHeight : 1 080 pixelsDisplay aspect ratio : 16:9Frame rate : 25.000 fpsColor space : YUVChroma subsampling : 4:2:0Bit depth : 8 bitsScan type : MBAFFBits/(Pixel*Frame) : 0.151Stream size : 2.45 GiB (93%)
AudioID : 2912 (0xB60)Menu ID : 1 (0x1)Format : MPEG AudioFormat version : Version 1Format profile : Layer 2Mode : Joint stereoMode extension : Intensity Stereo + MS StereoCodec ID : 3Duration : 44mn 44sBit rate mode : ConstantBit rate : 192 KbpsChannel(s) : 2 channelsSampling rate : 48.0 KHzCompression mode : LossyStream size : 61.5 MiB (2%)Language : Russian

Внимание! Раздача ведётся путём добавления новых выпусков

Внимание! Раздача ведётся путём добавления новых выпусков; при каждом добавлении создётся новый торрент. Чтобы начать докачку нового выпуска, пользователям необходимо сделать следующее:
(1) остановить скачивание,
(2) удалить старый торрент у себя из клиента (старые выпуски удалять не надо),
(3) скачать новый торрент и запустить его у себя в клиенте вместо старого, при этом указать клиенту путь в старую папку куда и должно происходить скачивание новых выпусков.
Ваш клиент при этом должен произвести хеширование (проверку) старой папки (если не производит сам - помогите ему сделать это), и будет докачивать только те выпуски которых у вас ещё нет. Старые выпуски при этом не удаляются, а продолжают раздаваться!
Eсли вы уже удалили старые выпуски, то предотвратить повторную закачку старых выпусков можно, отжав галочку в соответсвующих местах при запуске нового торрента. По возможности, желательно не удалять старые выпуски как можно дольше чтобы релизёр не столько продолжал раздавать старые выпуски, а смог сконцентрироваться на новых.
Показать сообщения:    

Текущее время: Сегодня 00:29

Часовой пояс: GMT



Вы не можете начинать темы
Вы не можете отвечать на сообщения
Вы не можете редактировать свои сообщения
Вы не можете удалять свои сообщения
Вы не можете голосовать в опросах
Вы не можете прикреплять файлы к сообщениям
Вы не можете скачивать файлы