Важное объявление!
У Нас Все раздачи мультитрекерные, при нуле пиров в релизах, можете смело вставать на закачку!
 
Автор Сообщение

HUNTER

Стаж:
4 года 10 месяцев
Сообщений:
65486

Репутация: 101

[+] [-]
Вне форума [Профиль] [ЛС]

Блондинка в эфире / Walk of Shame--

  • Год выпуска: 2014
  • Страна: США
  • Жанр: Комедия
  • Продолжительность: 01:34:28
  • Перевод: Дублированный [Лицензия]
  • Субтитры: Русские, английские
  • В ролях: Элизабет Бэнкс, Джеймс Марсден, Джиллиан Джейкобс, Сара Райт, Итан Сапли, Билли Барр, Кен Давитян, Ларри Джиллиард мл., Альфонсо МакОли, Дэвон МакДональд
  • Режиссёр: Стивен Брилл

    После провала собеседования на перспективную должность на Лос-Анджелесском телевидении амбициозная телеведущая с горя уходит в загул. Проведя бурную ночь, она приходит в себя утром на улице, не имея при себе ни денег, ни паспорта, ни машины… Есть только мобильный, в котором она читает смс: «Поздравляем! Вы приняты на работу. Сегодня первый эфир».--
  • Качество: BDRip 720p
  • Формат: MKV
  • Видео кодек: AVC
  • Аудио кодек: AC3
  • Видео: AVC, 1280x536, 5522 Кбит/сек, 23.976 кадр/сек
  • Аудио: АС3, 448 Кбит/сек, 6 канала(ов), 48,0 КГц - Русский
  • Аудио: АС3, 640 Кбит/сек, 6 канала(ов), 48,0 КГц - Английский
--

Рейтинг

MediaInfo

General
Unique ID : 182825787925196692470996802662377315636 (0x898AF748F7762175A49BA52EE041DD34)
Complete name : C:\Users\SQS\Desktop\Walk.of.Shame.2014.BDRip.720p.mkv
Format : Matroska
Format version : Version 2
File size : 4.36 GiB
Duration : 1h 34mn
Overall bit rate : 6 610 Kbps
Movie name : ~V ad~
Encoded date : UTC 2014-07-21 13:18:01
Writing application : mkvmerge v6.5.0 ('Isn't she lovely') built on Oct 20 2013 12:50:05
Writing library : libebml v1.3.0 + libmatroska v1.4.1
Video
ID : 1
Format : AVC
Format/Info : Advanced Video Codec
Format profile : High@L4.1
Format settings, CABAC : Yes
Format settings, ReFrames : 9 frames
Codec ID : V_MPEG4/ISO/AVC
Duration : 1h 34mn
Bit rate : 5 522 Kbps
Width : 1 280 pixels
Height : 536 pixels
Display aspect ratio : 2.40:1
Frame rate mode : Constant
Frame rate : 23.976 fps
Color space : YUV
Chroma subsampling : 4:2:0
Bit depth : 8 bits
Scan type : Progressive
Bits/(Pixel*Frame) : 0.336
Stream size : 3.56 GiB (82%)
Title : ~V~
Writing library : x264 core 142 r2409+42 04be48a tMod [8-bit@all X86_64]
Encoding settings : cabac=1 / ref=9 / deblock=1:-3:-3 / analyse=0x3:0x133 / me=umh / subme=11 / psy=1 / fade_compensate=0.00 / psy_rd=1.00:0.00 / mixed_ref=1 / me_range=48 / chroma_me=1 / trellis=2 / 8x8dct=1 / cqm=0 / deadzone=21,11 / fast_pskip=0 / chroma_qp_offset=-2 / threads=12 / lookahead_threads=1 / sliced_threads=0 / nr=0 / decimate=0 / interlaced=0 / bluray_compat=0 / constrained_intra=0 / fgo=0 / bframes=9 / b_pyramid=2 / b_adapt=2 / b_bias=0 / direct=3 / weightb=1 / open_gop=0 / weightp=2 / keyint=240 / keyint_min=23 / scenecut=40 / intra_refresh=0 / rc_lookahead=50 / rc=2pass / mbtree=1 / bitrate=5522 / ratetol=1.0 / qcomp=0.60 / qpmin=0:0:0 / qpmax=69:69:69 / qpstep=4 / cplxblur=20.0 / qblur=0.5 / ip_ratio=1.40 / aq=2:0.80 / aq-sensitivity=10.00 / aq-factor=1.00:1.00:1.00 / aq2=0 / aq3=0
Language : English
Default : Yes
Forced : No
Audio #1
ID : 2
Format : AC-3
Format/Info : Audio Coding 3
Mode extension : CM (complete main)
Format settings, Endianness : Big
Codec ID : A_AC3
Duration : 1h 34mn
Bit rate mode : Constant
Bit rate : 448 Kbps
Channel(s) : 6 channels
Channel positions : Front: L C R, Side: L R, LFE
Sampling rate : 48.0 KHz
Bit depth : 16 bits
Compression mode : Lossy
Stream size : 303 MiB (7%)
Title : Dub
Language : Russian
Default : Yes
Forced : Yes
Audio #2
ID : 3
Format : AC-3
Format/Info : Audio Coding 3
Mode extension : CM (complete main)
Format settings, Endianness : Big
Codec ID : A_AC3
Duration : 1h 34mn
Bit rate mode : Constant
Bit rate : 640 Kbps
Channel(s) : 6 channels
Channel positions : Front: L C R, Side: L R, LFE
Sampling rate : 48.0 KHz
Bit depth : 16 bits
Compression mode : Lossy
Stream size : 432 MiB (10%)
Language : English
Default : No
Forced : No
Text #1
ID : 4
Format : UTF-8
Codec ID : S_TEXT/UTF8
Codec ID/Info : UTF-8 Plain Text
Title : Full
Language : Russian
Default : No
Forced : No
Text #2
ID : 5
Format : UTF-8
Codec ID : S_TEXT/UTF8
Codec ID/Info : UTF-8 Plain Text
Title : Full
Language : English
Default : No
Forced : No
Text #3
ID : 6
Format : UTF-8
Codec ID : S_TEXT/UTF8
Codec ID/Info : UTF-8 Plain Text
Title : SDH
Language : English
Default : No
Forced : No
Menu
00:00:00.000 : en:00:00:00.000
00:02:27.689 : en:00:02:27.689
00:07:23.735 : en:00:07:23.735
00:12:20.531 : en:00:12:20.531
00:17:16.702 : en:00:17:16.702
00:22:08.118 : en:00:22:08.118
00:26:53.737 : en:00:26:53.737
00:32:04.464 : en:00:32:04.464
00:39:18.898 : en:00:39:18.898
00:46:26.409 : en:00:46:26.409
00:51:02.977 : en:00:51:02.977
00:54:24.678 : en:00:54:24.678
00:59:49.211 : en:00:59:49.211
01:05:01.523 : en:01:05:01.523
01:07:40.223 : en:01:07:40.223
01:11:44.634 : en:01:11:44.634
01:15:06.252 : en:01:15:06.252
01:22:58.473 : en:01:22:58.473
01:27:27.701 : en:01:27:27.701
01:29:34.703 : en:01:29:34.703

Скриншоты:

-Источник:

_________________
Показать сообщения:    

Текущее время: Сегодня 14:16

Часовой пояс: GMT



Вы не можете начинать темы
Вы не можете отвечать на сообщения
Вы не можете редактировать свои сообщения
Вы не можете удалять свои сообщения
Вы не можете голосовать в опросах
Вы не можете прикреплять файлы к сообщениям
Вы не можете скачивать файлы