Важное объявление!
У Нас Все раздачи мультитрекерные, при нуле пиров в релизах, можете смело вставать на закачку!
Статистика раздачи
Размер:     |    Зарегистрирован:     |    Скачан:     |   
Нет
 
     
 
 
Автор Сообщение

HUNTER

Стаж:
5 лет 1 месяц
Сообщений:
68439

Репутация: 101

[+] [-]
Вне форума [Профиль] [ЛС]

Блики в золотом глазу / Reflections in a Golden Eye
КЛАССИКА МИРОВОГО КИНО
Страна: США
Студия: Warner Brothers/Seven Arts
Жанр: триллер, драма, мелодрама
Год выпуска: 1967
Продолжительность: 01:49:11
Перевод 1: Авторский (одноголосый закадровый) Григорий Либергал
Перевод 2: Профессиональный (многоголосый закадровый)
Cубтитры: английские
Оригинальная аудиодорожка: английский
Режиссер: Джон Хьюстон / John Huston
В ролях: Элизабет Тэйлор /Elizabeth Taylor/, Марлон Брандо /Marlon Brando/, Зорро Дэвид /Zorro David/, Глэдис Хилл /Gladys Hill/, Брайан Кит /Brian Keith/, Роберт Форстер /Robert Forster/, Джули Харрис /Julie Harris/,
Описание: Обитатели крохотного военного городка в штате Джорджия конца 1940-х, они все напоминают одновременно и смертельно опасных зверей, и загнанную добычу. Их судьбы давно рухнули, а за поддерживающимся из последних сил распорядком дня скрываются вытесненные мании и пороки. Майор Пендерстон (Брандо) еще изображает из себя крутого мачо с увядшими бицепсами, но на деле страшится своего латентного гомосексуализма и давно уже ни в грош не ставящей его жены (Элизабет Тейлор). Она, в свою очередь, изменяет ему с подполковником, который предпочитает не замечать, как бесповоротно сходит с ума его нежная истеричка-жена, любительница классической музыки. Даже слуга-филиппинец, единственный близкий к ней человек, не может спасти ее от жуткой мазохистской расправы над самой собой. И за всеми наблюдает странный солдат - вуайерист, девственник, то ли ангел, способный спасти хоть кого-то, то ли демон, безвозвратно губящий всех. kinopoisk.ru
Альтернативное описание: За вами никто не следит? Особенно по ночам. Никто не наблюдает за каждым вашим движением в окне? Точно? А когда вы спите, вы уверены, что в вашей комнате не может находиться посторонний человек? Когда идете по улице, находитесь вне дома, никто за вами сзади не идет, не едет, не бежит? Не торопитесь с ответом.
Марлон Брандо и Элизабет Тейлор. И фильм уже не может быть плохим. Анализировать его невероятно сложно, он сам по себе очень сложный, да и «уложиться в рамки» очень тяжело. Попробую. Режиссер фильма Джон Хьюстон задумал этот фильм давно, и задумал снять его в очень необычном технически желто-черно-белом цвете. Оденьте старые очки со стеклом желтого цвета. Вот-вот, примерно так, хоть и примитивненько. Продюсеры картины решили, что народ не поймет, и выпустили фильм в привычном для сегодняшнего дня цвете. Но как же режиссер был прав, и его желто-черно-белая версия имела больший успех, чем стандартная продюсерская. Сравните обе версии фильма, я уверен, что именно начальная желто-черно-белая версия вам понравится больше. Фильм снят по повести Карсон Маккалерс «Отражения в золотом глазу», вышедшей в 1941 году. А в 1967 году эту книгу экранизировал Джон Хьюстон.
Камерная атмосфера фильма и его цветовое решение превращают фильм в триллер, насыщая его музыкой. Потом он все больше переплетается с драматизмом, доведенным до ужаса: избиение лошади плетью от собственной ущербности и малодушия. Очень важен момент, когда упавший с лошади Брандо, видит в лесу абсолютно голого солдата, который ежедневно заглядывает в окно. Полностью обнаженный солдат просто проходит неспеша мимо него. Фильм далеко не для всех, здесь присутствуют: гомосексуализм, вуайеризм, эксгибиционизм, психоз, невроз — с одной стороны; с другой — равнодушие, злость, ненависть. И все это переплетается самым причудливым образом.
… Теперь ты знаешь чьи-то секреты, сокровенные тайны, которые люди годами прячут за семью замками. Теперь у тебя есть власть над этими людьми, ты можешь манипулировать ними, как захочешь. Да, в тебе масса отклонений от нормы, они порождают новые отклонения ежедневно. Это все странности человеческой природы, порождающие трагизм, страдание, иногда — желание что-то переделать в себе и в людях. И это никогда не даст тебе покоя, не даст сидеть на одном месте, порой это угнетает. Это и есть оно. Несовершенство мира человеческой природы.
Так в ваше окно точно никто не смотрит? Я бы не спешил с ответом.
--------------------------------------------------------------------------------
Оператор: Альдо Тонти /Aldo Tonti/
Сценарист: Мортимер Чэпмэн /Champan Mortimer/
Продюсер: Рой Старк /Roy Stark/
Монтажер: Расселл Ллойд /Russell Lloyd/
Композитор: Тосиро Майюдзуми /Toshiro Mayuzumi/
Художник: Стивен Граймс /Stephen Grimes/
По произведению: Карсон МакКаллер /Carson McCuller/
--------------------------------------------------
КИНОПОИСК. RU
РЕЙТИНГ -7.236 оценки: 196
6,8/10 from 3 170 users
--------------------------------------------------
Доп. информация: Видеоряд от protoyu. Русские дороги отсюда DVD9
----------------
СЭМПЛ
----------------
Тип релиза: WEB-DL 720p
Контейнер: MKV
Видео: 1276x532; 23.976 fps; ~ 3 999 Kbps; 0.245 Bits/Pixel
Аудио 1: Russian - 48 kHz, AC3 Dolby Digital, 2/0 (L,R) ch, ~192 kbps - Григорий Либергал
Аудио 2: Russian - 48 kHz, AC3 Dolby Digital, 2/0 (L,R) ch, ~192 kbps - МVO
Аудио 3: English - 48 kHz, AC3 Dolby Digital, 2/0 (L,R) ch, ~192 kbps - Original
Формат субтитров: English (*UTF-8)

MediaInfo

General
Complete name : F:\EXCLUZIVE=19\БЛИКИ В ЗОЛОТОМ ГЛАЗУ = REFLECTIONS IN A GOLDEN EYE.1967\Reflections in a Golden Eye.1967\Reflections in a Golden Eye 1967 720p WEB-DL.mkv
Format : Matroska
File size : 3.56 GiB
Duration : 1h 49mn
Overall bit rate : 4 668 Kbps
Encoded date : UTC 2013-09-04 12:49:49
Writing application : mkvmerge v3.3.0 ('Language') built on Mar 24 2010 14:59:24
Writing library : libebml v0.8.0 + libmatroska v0.9.0
Video
ID : 1
Format : AVC
Format/Info : Advanced Video Codec
Format profile : Main@L3.1
Format settings, CABAC : No
Format settings, ReFrames : 2 frames
Muxing mode : Container profile=Unknown@3.1
Codec ID : V_MPEG4/ISO/AVC
Duration : 1h 49mn
Bit rate : 3 999 Kbps
Width : 1 280 pixels
Height : 532 pixels
Display aspect ratio : 2.40:1
Frame rate : 23.976 fps
Color space : YUV
Chroma subsampling : 4:2:0
Bit depth : 8 bits
Scan type : Progressive
Bits/(Pixel*Frame) : 0.245
Stream size : 3.05 GiB (86%)
Title : Reflections in a Golden Eye 1967
Language : English
Color primaries : BT.709-5, BT.1361, IEC 61966-2-4, SMPTE RP177
Transfer characteristics : BT.709-5, BT.1361
Matrix coefficients : BT.709-5, BT.1361, IEC 61966-2-4 709, SMPTE RP177
Audio #1
ID : 2
Format : AC-3
Format/Info : Audio Coding 3
Mode extension : CM (complete main)
Codec ID : A_AC3
Duration : 1h 49mn
Bit rate mode : Constant
Bit rate : 192 Kbps
Channel(s) : 2 channels
Channel positions : Front: L R
Sampling rate : 48.0 KHz
Stream size : 150 MiB (4%)
Title : AVO Либергал @ AC3 192 kbps
Language : Russian
Audio #2
ID : 3
Format : AC-3
Format/Info : Audio Coding 3
Mode extension : CM (complete main)
Codec ID : A_AC3
Duration : 1h 49mn
Bit rate mode : Constant
Bit rate : 192 Kbps
Channel(s) : 2 channels
Channel positions : Front: L R
Sampling rate : 48.0 KHz
Stream size : 150 MiB (4%)
Title : MVO @ AC3 192 kbps
Language : Russian
Audio #3
ID : 4
Format : AC-3
Format/Info : Audio Coding 3
Mode extension : CM (complete main)
Codec ID : A_AC3
Duration : 1h 49mn
Bit rate mode : Constant
Bit rate : 192 Kbps
Channel(s) : 2 channels
Channel positions : Front: L R
Sampling rate : 48.0 KHz
Stream size : 150 MiB (4%)
Title : Original @ AC3 192 kbps
Language : English
Text
ID : 5
Format : UTF-8
Codec ID : S_TEXT/UTF8
Codec ID/Info : UTF-8 Plain Text
Language : English
Menu
00:00:00.000 : en:Credits And Foreward.
00:02:28.000 : en:Pvt. Williams' Work Detail.
00:08:14.000 : en:Tryst In The Woods.
00:09:42.000 : en:She Drinks, He Doesn't.
00:13:20.000 : en:"Firebird Is A Stallion."
00:16:29.000 : en:You Disgust Me.
00:19:53.000 : en:Unloving Couples.
00:23:57.000 : en:Private Scrutiny.
00:28:58.000 : en:Ruptures Rapture.
00:31:28.000 : en:Fallen Rider.
00:34:09.000 : en:Naked Rider.
00:35:38.000 : en:Night Visitor.
00:40:50.000 : en:Golden Eye.
00:45:35.000 : en:Party And Departure Plans.
00:51:48.000 : en:Astride Firebird.
00:56:18.000 : en:Horsewhipping: Intercession.
00:58:53.000 : en:Those Festive And Wounder.
01:01:49.000 : en:Weincheck's News; The Joke.
01:03:43.000 : en:Taste Of The Whip.
01:07:39.000 : en:Revisitation.
01:11:04.000 : en:Spousal Notes.
01:14:55.000 : en:Shadowing Williams.
01:16:50.000 : en:Caught In Leonora's Room.
01:19:53.000 : en:Taking Care Of Alison.
01:25:50.000 : en:Consoling Morris.
01:30:29.000 : en:Major Distractions.
01:34:47.000 : en:Men Among Men.
01:39:59.000 : en:Stormy Night.
01:43:36.000 : en:Murder Committed.

Скриншоты

, ,
, ,
, ,
, ,
Мои раздачи фильмов в Авторском переводе

_________________
Показать сообщения:    

Текущее время: Сегодня 06:09

Часовой пояс: GMT



Вы не можете начинать темы
Вы не можете отвечать на сообщения
Вы не можете редактировать свои сообщения
Вы не можете удалять свои сообщения
Вы не можете голосовать в опросах
Вы не можете прикреплять файлы к сообщениям
Вы не можете скачивать файлы