Ивановский Торрент трекер
Яндекс.Погода
 

[Цитировать]
Game

-Благослови меня, Ультима / Bless Me, Ultima
-Год выпуска: 2013
Страна: США
Жанр: драма, военный
Продолжительность: 01:45:54
Перевод: Профессиональный (дублированный)
Cубтитры: нет-Режиссер: Карл Франклин / Carl Franklin-В ролях: Мириам Колон, Люк Ганалон, Бенито Мартинес, Долорес Эредиа, Кастуло Герра, Хоакин Косио, Мануэль Рульфо, Реко Морено, Луис Бордонада, Джозеф А. Гарсиа-Описание: Экранизация одноименной книги Рудольфо Анайи, в которой рассказывается об отношениях семилетнего мальчика Антонио и женщины-целительницы по имени Ультима. События картины разворачиваются в Нью-Мексико в начале 1940-х годов. В то время как весь мир погружен в войну, маленький Антонио сталкивается с неоднозначными событиями, происходящими вокруг него. Его жизнь навсегда резко меняется после внезапного прибытия Ультимы, женщины со сверхъестественными способностями, которая несет миссию добра. В то время как Ультима вдохновляет Антонио интересоваться окружающим его миром с совсем иной точки зрения, мальчик становится свидетелем невозможных на вид событий, которые оказывают глубокое влияние на его понятие богословия и на всю его дальнейшую судьбу.-Доп. информация: -Сэмпл: http://multi-up.com/935706-Качество : WEB-DLRip
Формат : AVI
Видео кодек: XviD
Аудио кодек: AC3
Видео: 720x304,23.976 fps,XviD build 50,1770 kbps avg,0.34 bit/pixel
Аудио: 48 kHz,AC3 Dolby Digital,2/0 (L,R) ch,192 kbps-

MediaInfo

Общее
Полное имя : D:\Filmi\Blagoslovi.menya.Yljtima.2013.P.WEBDLRip.1.46Gb.avi
Формат : AVI
Формат/Информация : Audio Video Interleave
Размер файла : 1,46 Гбайт
Продолжительность : 1 ч. 45 м.
Общий поток : 1972 Кбит/сек
Программа кодирования : VirtualDubMod 1.5.10.2 (build 2540/release)
Библиотека кодирования : VirtualDubMod build 2540/release
Видео
Идентификатор : 0
Формат : MPEG-4 Visual
Профиль формата : Advanced Simple@L5
Параметр BVOP формата : 2
Параметр QPel формата : Нет
Параметр GMC формата : Без точки перехода
Параметр матрицы формата : Default (MPEG)
Идентификатор кодека : XVID
Идентификатор кодека/Подсказка : XviD
Продолжительность : 1 ч. 45 м.
Битрейт : 1771 Кбит/сек
Ширина : 720 пикселей
Высота : 304 пикселя
Соотношение сторон : 2,35:1
Частота кадров : 23,976 кадра/сек
Цветовое пространство : YUV
Субдискретизация насыщенности : 4:2:0
Битовая глубина : 8 бит
Тип развёртки : Прогрессивная
Бит/(Пиксели*Кадры) : 0.337
Размер потока : 1,31 Гбайт (90%)
Библиотека кодирования : XviD 1.2.1 (UTC 2008-12-04)
Аудио
Идентификатор : 1
Формат : AC-3
Формат/Информация : Audio Coding 3
Расширение режима : CM (complete main)
Параметр Endianness формата : Big
Идентификатор кодека : 2000
Продолжительность : 1 ч. 45 м.
Вид битрейта : Постоянный
Битрейт : 192 Кбит/сек
Каналы : 2 канала
Расположение каналов : Front: L R
Частота : 48,0 КГц
Битовая глубина : 16 бит
Размер потока : 145 Мбайт (10%)
Выравнивание : Разделение по промежуткам
Продолжительность промежутка : 42 мс. (1,00 видеокадр)
Время предзагрузки промежутка : 500 мс.

Скриншоты

-
Показать сообщения:    

Текущее время: 19-Окт 01:02

Часовой пояс: UTC - 1


Вы не можете начинать темы
Вы не можете отвечать на сообщения
Вы не можете редактировать свои сообщения
Вы не можете удалять свои сообщения
Вы не можете голосовать в опросах
Вы не можете прикреплять файлы к сообщениям
Вы не можете скачивать файлы

!ВНИМАНИЕ!
Сайт не предоставляет электронные версии произведений, а занимается лишь коллекционированием и каталогизацией ссылок, присылаемых и публикуемых на форуме нашими читателями. Если вы являетесь правообладателем какого-либо представленного материала и не желаете, чтобы ссылка на него находилась в нашем каталоге, свяжитесь с нами, и мы незамедлительно удалим ее. Файлы для обмена на трекере предоставлены пользователями сайта, и администрация не несет ответственности за их содержание. Просьба не заливать файлы, защищенные авторскими правами, а также файлы нелегального содержания!