Битлз: Жёлтая подводная лодка / The Beatles: Yellow submarine (Джордж Даннинг / George Dunning) [1968, мультфильм, музыкальный, BDRip] VO (Игорь Кукушкин) + Original Eng :: Ивановский Торрент трекер
Важное объявление!
У Нас Все раздачи мультитрекерные, при нуле пиров в релизах, можете смело вставать на закачку!
Статистика раздачи
Размер:     |    Зарегистрирован:     |    Скачан:     |   
Нет
 
     
 
 
Автор Сообщение

HUNTER

Стаж:
4 года 11 месяцев
Сообщений:
66112

Репутация: 101

[+] [-]
Вне форума [Профиль] [ЛС]

Битлз: Жёлтая подводная лодка / The Beatles: Yellow submarine
Страна: Великобритания / США
Жанр: мультфильм, музыкальный
Продолжительность: 01:29:41
Год выпуска: 1968
Перевод: Одноголосый закадровый - Игорь Кукушкин aka Ёж ушастый
Русские субтитры: нет
Режиссёр: Джордж Даннинг / George Dunning
Роли озвучивали: Джон Леннон, Пол Маккартни, Джордж Харрисон, Ринго Старр, Пол Анджелис, Джон Клайв, Дик Эмери, Джефри Хьюз, Ланс Персивал, Питер Бэттен
Описание: Мультипликационные персонажи, сильно напоминающие знаменитую четвёрку «Битлз», поют и совершают путешествие на жёлтой подводной лодке по фантастической стране Пепперлэнд, борясь за любовь, дружбу, цветы и музыку против злых и плохих уродцев — синих вреднючек.
Семпл: http://multi-up.com/1031693
Качество: BDRip
Формат: AVI
Видео: 720x432 (1.67:1), 23.976 fps, XviD build 50 ~1998 kbps avg, 0.27 bit/pixel
Аудио: 48 kHz, MPEG Layer 3, 2 ch, ~128.00 kbps avg - русский
Аудио 2: 48 kHz, MPEG Layer 3, 2 ch, ~128.00 kbps avg - английский
Субтитры: отсутствуют

Подробные технические данные

ОбщееПолное имя : D:\The beatles - Yellow submarine.aviФормат : AVIФормат/Информация : Audio Video InterleaveРазмер файла : 1,42 ГбайтПродолжительность : 1 ч. 29 м.Общий поток : 2270 Кбит/секПрограмма кодирования : VirtualDubModRus 1.5.10.2 (build 2540/release)Библиотека кодирования : VirtualDubMod build 2540/release
ВидеоИдентификатор : 0Формат : MPEG-4 VisualПрофиль формата : Advanced Simple@L5Параметр BVOP формата : 2Параметр QPel формата : НетПараметр GMC формата : Без точки переходаПараметр матрицы формата : Default (MPEG)Идентификатор кодека : XVIDИдентификатор кодека/Подсказка : XviDПродолжительность : 1 ч. 29 м.Битрейт : 2000 Кбит/секШирина : 720 пикселейВысота : 432 пикселяСоотношение сторон : 1,667Частота кадров : 23,976 кадра/секЦветовое пространство : YUVСубдискретизация насыщенности : 4:2:0Битовая глубина : 8 битТип развёртки : ПрогрессивнаяМетод сжатия : С потерямиБит/(Пиксели*Кадры) : 0.268Размер потока : 1,25 Гбайт (88%)Библиотека кодирования : XviD 1.2.1 (UTC 2008-12-04)
Аудио #1Идентификатор : 1Формат : MPEG AudioВерсия формата : Version 1Профиль формата : Layer 3Режим : Joint stereoРасширение режима : MS StereoИдентификатор кодека : 55Идентификатор кодека/Подсказка : MP3Продолжительность : 1 ч. 29 м.Вид битрейта : ПостоянныйБитрейт : 128 Кбит/секКаналы : 2 каналаЧастота : 48,0 КГцМетод сжатия : С потерямиРазмер потока : 82,1 Мбайт (6%)Выравнивание : Соединение по промежуткамПродолжительность промежутка : 42 мс. (1,00 видеокадр)Время предзагрузки промежутка : 504 мс.
Аудио #2Идентификатор : 2Формат : MPEG AudioВерсия формата : Version 1Профиль формата : Layer 3Режим : Joint stereoРасширение режима : MS StereoИдентификатор кодека : 55Идентификатор кодека/Подсказка : MP3Продолжительность : 1 ч. 29 м.Вид битрейта : ПостоянныйБитрейт : 128 Кбит/секКаналы : 2 каналаЧастота : 48,0 КГцМетод сжатия : С потерямиРазмер потока : 82,1 Мбайт (6%)Выравнивание : Соединение по промежуткамПродолжительность промежутка : 42 мс. (1,00 видеокадр)Время предзагрузки промежутка : 504 мс.

Скриншоты



_________________
Показать сообщения:    

Текущее время: Сегодня 22:51

Часовой пояс: GMT



Вы не можете начинать темы
Вы не можете отвечать на сообщения
Вы не можете редактировать свои сообщения
Вы не можете удалять свои сообщения
Вы не можете голосовать в опросах
Вы не можете прикреплять файлы к сообщениям
Вы не можете скачивать файлы