Ивановский Торрент трекер
Яндекс.Погода
 

[Цитировать]
HUNTER

Битва самураев / Ten to Chi to-
  • Год выпуска: 1990
  • Страна: Япония
  • Жанр: боевик, драма, приключения, военный
  • Продолжительность: 01:45:03
  • Перевод: Профессиональный (многоголосный)
-
  • Режиссер: Харуки Кадокава
  • Сценарий: Харуки Кадокава, Chogoro Kaionji, Тошио Камата, ...
  • Продюсер: Ютака Окада, Yasutada Uemura
  • Композитор: Daisuke Hinata, Тецуя Комуро
- -
  • Во времена кровожадного средневековья Японию раздирали феодальные войны. Величайшее в истории сражение развязали враждующие правители соседних провинций. Мудрому и благородному Когиторе объявил войну честолюбивый Токеда, мечтающий завоевать всю Японию…
--
  • Бюджет: $42 000 000
  • Сборы в США: $307 775
  • Премьера (мир): 24 ноября 1990, ...
-
  • Рейтинг MPAA: Детям до 13 лет просмотр не желателен
--
  • Рейтинг:
--
  • Качество: DVDRip
  • Формат: AVI
  • Видео кодек: XviD
  • Аудио кодеk: AC3
  • Видео: 720x400 (16:9), 23.976 fps, XviD, 1 990 Kbps
  • Аудио: русский MVO: AC3, 192 Kbps, 48.0 KHz, 2 ch
    русский DVO: AC3, 224 Kbps, 48.0 KHz, 2 ch
    японский: AC3, 448 Kbps, 48.0 KHz, 2 ch
-

МедиаИнфо

Код: copyText_writeLink('this.parentNode.parentNode.nextSibling.nextSibling'); General
Complete name : Bitva Samyraev.1990.DVDRip.avi
Format : AVI
Format/Info : Audio Video Interleave
Format profile : OpenDML
File size : 2.11 GiB
Duration : 1h 45mn
Overall bit rate : 2 878 Kbps
Director : CrimeanFox
Writing application : VirtualDubMod 1.5.10.2 (build 2540/release)
Writing library : VirtualDubMod build 2540/release
Copyright : Vanila
Video
ID : 0
Format : MPEG-4 Visual
Format profile : Advanced Simple@L5
Format settings, BVOP : Yes
Format settings, QPel : No
Format settings, GMC : No warppoints
Format settings, Matrix : Default (MPEG)
Codec ID : XVID
Codec ID/Hint : XviD
Duration : 1h 45mn
Bit rate : 1 990 Kbps
Width : 720 pixels
Height : 400 pixels
Display aspect ratio : 16:9
Frame rate : 23.976 fps
Color space : YUV
Chroma subsampling : 4:2:0
Bit depth : 8 bits
Scan type : Progressive
Bits/(Pixel*Frame) : 0.288
Stream size : 1.46 GiB (69%)
Writing library : XviD 65
Audio #1
ID : 1
Format : AC-3
Format/Info : Audio Coding 3
Mode extension : CM (complete main)
Codec ID : 2000
Duration : 1h 45mn
Bit rate mode : Constant
Bit rate : 192 Kbps
Channel(s) : 2 channels
Channel positions : Front: L R
Sampling rate : 48.0 KHz
Bit depth : 16 bits
Stream size : 144 MiB (7%)
Alignment : Split accross interleaves
Interleave, duration : 42 ms (1.00 video frame)
Interleave, preload duration : 500 ms
Audio #2
ID : 2
Format : AC-3
Format/Info : Audio Coding 3
Mode extension : CM (complete main)
Codec ID : 2000
Duration : 1h 45mn
Bit rate mode : Constant
Bit rate : 224 Kbps
Channel(s) : 2 channels
Channel positions : Front: L R
Sampling rate : 48.0 KHz
Bit depth : 16 bits
Stream size : 168 MiB (8%)
Alignment : Split accross interleaves
Interleave, duration : 42 ms (1.00 video frame)
Interleave, preload duration : 500 ms
Audio #3
ID : 3
Format : AC-3
Format/Info : Audio Coding 3
Mode extension : CM (complete main)
Codec ID : 2000
Duration : 1h 45mn
Bit rate mode : Constant
Bit rate : 448 Kbps
Channel(s) : 2 channels
Channel positions : Front: L R
Sampling rate : 48.0 KHz
Bit depth : 16 bits
Stream size : 337 MiB (16%)
Alignment : Split accross interleaves
Interleave, duration : 42 ms (1.00 video frame)
Interleave, preload duration : 500 ms
-

скриншоты


--Не уходите с раздачи, помогайте раздавать! Скачал сам, помоги скачать другим раздавая скачанное. Помните, что файлы раздачи размещены у других пользователей, таких же качающих или уже скачавших как и Вы, поэтому если кто-то удалит файлы и торрент-файл из клиента, то велика возможность того, что материалов раздачи не останется ни у кого и другие, такие же участники сети не смогут их скачать. Давайте начинать перемены с себя.-
Показать сообщения:    

Текущее время: 20-Окт 09:51

Часовой пояс: UTC - 1


Вы не можете начинать темы
Вы не можете отвечать на сообщения
Вы не можете редактировать свои сообщения
Вы не можете удалять свои сообщения
Вы не можете голосовать в опросах
Вы не можете прикреплять файлы к сообщениям
Вы не можете скачивать файлы

!ВНИМАНИЕ!
Сайт не предоставляет электронные версии произведений, а занимается лишь коллекционированием и каталогизацией ссылок, присылаемых и публикуемых на форуме нашими читателями. Если вы являетесь правообладателем какого-либо представленного материала и не желаете, чтобы ссылка на него находилась в нашем каталоге, свяжитесь с нами, и мы незамедлительно удалим ее. Файлы для обмена на трекере предоставлены пользователями сайта, и администрация не несет ответственности за их содержание. Просьба не заливать файлы, защищенные авторскими правами, а также файлы нелегального содержания!