Важное объявление!
У Нас Все раздачи мультитрекерные, при нуле пиров в релизах, можете смело вставать на закачку!
 
Автор Сообщение

HUNTER

Стаж:
4 года 7 месяцев
Сообщений:
61573

Репутация: 101

[+] [-]
Вне форума [Профиль] [ЛС]

Битва за Воронеж / Забытый город-герой--

-
-Год выпуска: 2012
Производство: Юнайтед Филм Компани
Жанр: Документальный
Продолжительность: 00:38:58
Перевод: Не требуется
Русские субтитры: нет
--Режиссер: Вахтанг Микеладзе--Описание: События лета 1942 года обычно связывают с наступлением немцев на Кавказ и началом Сталинградской битвы. Но операция "Блау" начиналась именно с Воронежа. Об этом четко сказано в директиве Гитлера от 5 апреля 1942 года. Город нужен был вермахту как опорный пункт, прикрывающий тыл наступающей на юг армии, и как тыловая база. На его захват отводилось всего 2-3 дня. Но то, с чем пришлось здесь столкнуться гитлеровцам, перечеркнуло все тщательно разработанные планы и во многом определило победу на Сталинградском фронте. События легендарной обороны комментируют доктор исторических наук, профессор С. Филоненко и ветераны войны.-- --Качество: IPTV
Формат: AVI
Видеокодек: XviD
Аудиокодек: MP3
Видео: XviD 640x480 (4:3) 25.00 fps 1599 Kbps
Аудио: 0x0055 MPEG-1 Layer 3 48000Hz 128 kb/s tot , Stereo CBR

MediaInfo

Код:
Видео
Идентификатор                            : 0
Формат                                   : MPEG-4 Visual
Профиль формата                          : Simple@L3
Параметр BVOP формата                    : Нет
Параметр QPel формата                    : Нет
Параметр GMC формата                     : Без точки перехода
Параметр матрицы формата                 : Default (H.263)
Идентификатор кодека                     : XVID
Идентификатор кодека/Подсказка           : XviD
Продолжительность                        : 38 м.
Битрейт                                  : 1600 Кбит/сек
Ширина                                   : 640 пикселей
Высота                                   : 480 пикселей
Соотношение сторон                       : 4:3
Частота кадров                           : 25,000 кадров/сек
Цветовое пространство                    : YUV
Субдискретизация насыщенности            : 4:2:0
Битовая глубина                          : 8 бит
Тип развёртки                            : Прогрессивная
Метод сжатия                             : С потерями
Бит/(Пиксели*Кадры)                      : 0.208
Размер потока                            : 446 Мбайт (92%)
Библиотека кодирования                   : XviD 64
Аудио
Идентификатор                            : 1
Формат                                   : MPEG Audio
Версия формата                           : Version 1
Профиль формата                          : Layer 3
Идентификатор кодека                     : 55
Идентификатор кодека/Подсказка           : MP3
Продолжительность                        : 38 м.
Вид битрейта                             : Постоянный
Битрейт                                  : 128 Кбит/сек
Каналы                                   : 2 канала
Частота                                  : 48,0 КГц
Метод сжатия                             : С потерями
Размер потока                            : 35,7 Мбайт (7%)
Выравнивание                             : Соединение по промежуткам
Продолжительность промежутка             : 400  мс. (10,00 видеокадров)
Время предзагрузки промежутка            : 504  мс.

Скриншоты


_________________
Показать сообщения:    

Текущее время: Сегодня 14:42

Часовой пояс: GMT



Вы не можете начинать темы
Вы не можете отвечать на сообщения
Вы не можете редактировать свои сообщения
Вы не можете удалять свои сообщения
Вы не можете голосовать в опросах
Вы не можете прикреплять файлы к сообщениям
Вы не можете скачивать файлы
Наши партнеры: интернет магазин Ивановского трикотажа textilla.ru