Ивановский Торрент трекер
Яндекс.Погода
 

[Цитировать]
HUNTER

Бильярдная братия / The Rack Pack--
Год выпуска » 2016
Страна » США, Великобритания / Black Gate Pictures, Leo Daniels Entertainment, Zeppotron
Жанр » Драма
Продолжительность » 01:26:59
Перевод » Любительский (одноголосый) sprvision
Субтитры » Отсутствуют
В ролях
» Люк Тридэуэй, Уилл Меррик, Кевин Бишоп, Никола Берли, Джеймс Бэйли, Том Фишер
Режиссёр
» Брайан Уэлш
ОПИСАНИЕ:
» Снукер в период его расцвета в 70-80-е годы. В центре сюжета – конкуренция между горячим смутьяном Алексом "Ураганом" Хиггинсом и его невозмутимым в своем спокойствии "ледяным" противником Стивом Дэвисом. В фильме, снятом в жанре трагикомедии, рассказывается и про то, как с помощью Дэвиса умелый предприниматель Барри Хирн поднял снукер на невиданные высоты буквально за несколько лет.
Качество » WEBRip
Формат » AVI
Видео кодек » XviD
Аудио кодек » AC3
Видео » XviD at 2 155 kb/s, 720x304 at 25.000 fps
Аудио » AC3, 224 kb/s, 2 канала, 48.0 КгцРусский
СЭМПЛ:--

Медиа инфо

Полное имя : Bil'jardnaja.bratija.2016.WEBRip.1400..avi
Формат : AVI
Формат/Информация : Audio Video Interleave
Размер файла : 1,45 Гбайт
Продолжительность : 1 ч. 26 м.
Общий поток : 2389 Кбит/сек
Программа кодирования : VirtualDubMod 1.5.10.3 (build 2550/release)
Библиотека кодирования : VirtualDubMod build 2550/release
Видео
Идентификатор : 0
Формат : MPEG-4 Visual
Профиль формата : Advanced Simple@L5
Параметр BVOP формата : 1
Параметр QPel формата : Нет
Параметр GMC формата : Без точки перехода
Параметр матрицы формата : Default (H.263)
Идентификатор кодека : XVID
Идентификатор кодека/Подсказка : XviD
Продолжительность : 1 ч. 26 м.
Битрейт : 2155 Кбит/сек
Ширина : 720 пикселей
Высота : 304 пикселя
Соотношение сторон : 2,35:1
Частота кадров : 25,000 кадров/сек
Цветовое пространство : YUV
Субдискретизация насыщенности : 4:2:0
Битовая глубина : 8 бит
Тип развёртки : Прогрессивная
Метод сжатия : С потерями
Бит/(Пиксели*Кадры) : 0.394
Размер потока : 1,31 Гбайт (90%)
Библиотека кодирования : XviD 73
Аудио
Идентификатор : 1
Формат : AC-3
Формат/Информация : Audio Coding 3
Расширение режима : CM (complete main)
Параметр Endianness формата : Big
Идентификатор кодека : 2000
Продолжительность : 1 ч. 26 м.
Вид битрейта : Постоянный
Битрейт : 224 Кбит/сек
Каналы : 2 канала
Расположение каналов : Front: L R
Частота : 48,0 КГц
Частота кадров : 31,250 кадров/сек (1536 spf)
Метод сжатия : С потерями
Размер потока : 139 Мбайт (9%)
Выравнивание : Разделение по промежуткам
Продолжительность промежутка : 40 мс. (1,00 видеокадр)
Время предзагрузки промежутка : 500 мс.

Скриншоты:

Показать сообщения:    

Текущее время: 19-Сен 14:20

Часовой пояс: UTC - 1


Вы не можете начинать темы
Вы не можете отвечать на сообщения
Вы не можете редактировать свои сообщения
Вы не можете удалять свои сообщения
Вы не можете голосовать в опросах
Вы не можете прикреплять файлы к сообщениям
Вы не можете скачивать файлы

!ВНИМАНИЕ!
Сайт не предоставляет электронные версии произведений, а занимается лишь коллекционированием и каталогизацией ссылок, присылаемых и публикуемых на форуме нашими читателями. Если вы являетесь правообладателем какого-либо представленного материала и не желаете, чтобы ссылка на него находилась в нашем каталоге, свяжитесь с нами, и мы незамедлительно удалим ее. Файлы для обмена на трекере предоставлены пользователями сайта, и администрация не несет ответственности за их содержание. Просьба не заливать файлы, защищенные авторскими правами, а также файлы нелегального содержания!