Ивановский Торрент трекер
Яндекс.Погода
 

[Цитировать]
HUNTER

Билет в Томагавк / A Ticket to Tomahawk
Страна: США
Жанр: вестерн, комедия
Год выпуска: 1950
Продолжительность: 01:26:31
Перевод: Профессиональный (многоголосый закадровый)
Cубтитры: нет
Оригинальная аудиодорожка: нет
Режиссер: Ричард Сейл / Richard Sale
В ролях: Дэн Дейли, Артур Ханникутт, Энн Бакстер, Рори Кэлхоун, Уолтер Бреннан, Чарльз Кемпер, Конни Гилкрист, Виктор Сен Юнг, Мэрилин Монро
Описание: 1876 год. Доусон хочет задержать поезд, следующий в Томагавк, поскольку ему надо попасть туда раньше на своем дилижансе. Среди пассажиров поезда Джонни, отвечающий за то, чтобы поездка прошла успешно и была завершена вовремя. Также в поезде едут актрисы, девушки-певицы из группы мадам Аделаиды...
Сэмпл: http://multi-up.com/1090625
Тип релиза: HDTV 1080i
Контейнер: TS
Видео: AVC, 1920x1080 (16:9), 25.000 fps, 10.7 Mbps (0.206 bit/pixel)
Аудио: MP2, 48.0 KHz, 2 ch, 192 Kbps, CBR (Russian)

MediaInfo

бщее
Идентификатор : 7 (0x7)
Полное имя : N:\Билет в Томагавк.ts
Формат : MPEG-TS
Размер файла : 6,91 Гбайт
Продолжительность : 1 ч. 26 м.
Режим общего битрейта : Переменный
Общий поток : 11,4 Мбит/сек
Видео
Идентификатор : 2141 (0x85D)
Идентификатор меню : 21004 (0x520C)
Формат : AVC
Формат/Информация : Advanced Video Codec
Профиль формата : Main@L4
Параметр CABAC формата : Да
Параметр ReFrames формата : 3 кадра
Идентификатор кодека : 27
Продолжительность : 1 ч. 26 м.
Битрейт : 10,7 Мбит/сек
Ширина : 1920 пикселей
Высота : 1080 пикселей
Соотношение сторон : 16:9
Частота кадров : 25,000 кадров/сек
Стандарт вещания : Component
Цветовое пространство : YUV
Субдискретизация насыщенности : 4:2:0
Битовая глубина : 8 бит
Тип развёртки : Чересстрочная
Метод сохранения типа развёртки : Раздельные поля
Порядок развёртки : Верхнее поле первое
Бит/(Пиксели*Кадры) : 0.206
Размер потока : 6,45 Гбайт (93%)
Цветовой диапазон : Limited
Основные цвета : BT.709
Характеристики трансфера : BT.709
Коэффициенты матрицы : BT.709
Аудио
Идентификатор : 2142 (0x85E)
Идентификатор меню : 21004 (0x520C)
Формат : MPEG Audio
Версия формата : Version 1
Профиль формата : Layer 2
Идентификатор кодека : 4
Продолжительность : 1 ч. 26 м.
Вид битрейта : Постоянный
Битрейт : 192 Кбит/сек
Каналы : 2 канала
Частота : 48,0 КГц
Метод сжатия : С потерями
Задержка видео : 112 мс.
Размер потока : 119 Мбайт (2%)
Язык : Russian

Скриншоты

Показать сообщения:    

Текущее время: 20-Окт 07:37

Часовой пояс: UTC - 1


Вы не можете начинать темы
Вы не можете отвечать на сообщения
Вы не можете редактировать свои сообщения
Вы не можете удалять свои сообщения
Вы не можете голосовать в опросах
Вы не можете прикреплять файлы к сообщениям
Вы не можете скачивать файлы

!ВНИМАНИЕ!
Сайт не предоставляет электронные версии произведений, а занимается лишь коллекционированием и каталогизацией ссылок, присылаемых и публикуемых на форуме нашими читателями. Если вы являетесь правообладателем какого-либо представленного материала и не желаете, чтобы ссылка на него находилась в нашем каталоге, свяжитесь с нами, и мы незамедлительно удалим ее. Файлы для обмена на трекере предоставлены пользователями сайта, и администрация не несет ответственности за их содержание. Просьба не заливать файлы, защищенные авторскими правами, а также файлы нелегального содержания!