Ивановский Торрент трекер
Яндекс.Погода
 

[Цитировать]
HUNTER

Библиотекарь: В поисках копья судьбы / The Librarian: Quest for the Spear
-Год выпуска: 2004
Страна: США
Жанр: Боевик / Фэнтези / Комедия
Продолжительность: 01:30:54
Перевод: Профессиональный (многоголосый, закадровый)
Оригинальная дорожка : английский - отдельно
Русские субтитры: нет-Режиссер: Питер Уинтер / Peter Winther-В ролях: Ноа Уайл , Кайл МакЛаклэн , Боб Ньюхарт , Келли Ху , Лиза Бреннер , Джейн Кертин-Описание: Из тайных хранилищ Нью-Йоркской Публичной библиотеки похищен магический артефакт — фрагмент Копья Судьбы. Библиотекарь Флинн Карсен должен вернуть его любой ценой и заодно найти оставшиеся два фрагмента прежде, чем ими завладеют злодеи.-IMDBРаздача от группы: Качество: HDTVRip-AVC (Исх. HDTVRip 720)
Формат: MKV
Видео: 1024x576 (16:9), 25 fps, х264, 1880 kbps avg
Аудио: 48 kHz, AC3 Dolby Digital, 3/2 (L,C,R,l,r) + LFE ch, ~384.00 kbps avg RUS
Аудио: 48 kHz, AC3 Dolby Digital, 3/2 (L,C,R,l,r) + LFE ch, ~384.00 kbps avg ENG - отдельно

Mediainfo

General
Complete name : L:\Bibliotekar-1-2-3.chopper887\Bibliotekar-1.chopper887.mkv
Format : Matroska
File size : 1.46 GiB
Duration : 1h 30mn
Overall bit rate : 2 310 Kbps
Movie name : Bibliotekar-1.chopper887.mkv
Encoded date : UTC 2011-03-27 10:15:06
Writing application : mkvmerge v4.4.0 ('Die Wiederkehr') built on Nov 7 2010 22:17:07
Writing library : libebml v1.0.0 + libmatroska v1.0.0
Video
ID : 1
Format : AVC
Format/Info : Advanced Video Codec
Format profile : High@L4.1
Format settings, CABAC : Yes
Format settings, ReFrames : 10 frames
Muxing mode : Container profile=Unknown@4.1
Codec ID : V_MPEG4/ISO/AVC
Duration : 1h 30mn
Bit rate : 1 880 Kbps
Nominal bit rate : 1 925 Kbps
Width : 1 024 pixels
Height : 576 pixels
Display aspect ratio : 16:9
Frame rate : 25.000 fps
Resolution : 24 bits
Colorimetry : 4:2:0
Scan type : Progressive
Bits/(Pixel*Frame) : 0.127
Stream size : 1.18 GiB (81%)
Title : Bibliotekar-1.chopper887.mkv
Writing library : x264 core 114 r1913 5fd3dce
Encoding settings : cabac=1 / ref=10 / deblock=1:-2:-1 / analyse=0x3:0x133 / me=umh / subme=9 / psy=1 / psy_rd=1.00:0.15 / mixed_ref=1 / me_range=32 / chroma_me=0 / trellis=2 / 8x8dct=1 / cqm=0 / deadzone=21,11 / fast_pskip=0 / chroma_qp_offset=-3 / threads=3 / sliced_threads=0 / nr=0 / decimate=1 / interlaced=0 / constrained_intra=0 / bframes=10 / b_pyramid=2 / b_adapt=2 / b_bias=0 / direct=3 / weightb=1 / open_gop=0 / weightp=2 / keyint=250 / keyint_min=25 / scenecut=40 / intra_refresh=0 / rc_lookahead=80 / rc=2pass / mbtree=1 / bitrate=1925 / ratetol=1.0 / qcomp=0.70 / qpmin=10 / qpmax=51 / qpstep=4 / cplxblur=20.0 / qblur=0.5 / ip_ratio=1.40 / aq=1:1.00
Audio
ID : 2
Format : AC-3
Format/Info : Audio Coding 3
Codec ID : A_AC3
Duration : 1h 30mn
Bit rate mode : Constant
Bit rate : 384 Kbps
Channel(s) : 6 channels
Channel positions : Front: L C R, Surround: L R, LFE
Sampling rate : 48.0 KHz
Video delay : 500ms
Stream size : 248 MiB (17%)
Title : Многоголосый

скриншоты

-Библиотекарь 2: Возвращение в копи царя соломона / The Librarian: Return to King Solomon's Mines
-Год выпуска:2006
Страна: США
Жанр: Боевик / Фэнтези / Комедия
Продолжительность: 01:28:14
Перевод: Профессиональный (многоголосый, закадровый)
Оригинальная дорожка : английский - отдельно
Русские субтитры: нет-Режиссер: Джонатан Фрайкс / Jonathan Frakes-В ролях: Ной Уайл, Габриэлль Анвар, Боб Ньюхарт, Джейн Куртин, Олимпия Дукакис, Эрик Эвари, Хаким Кае-Казим-Описание: Флин Карсен, интеллигентный юноша, сотрудник Нью Йоркской библиотеки. Но в его душе всегда жила страсть к приключениям, тайнам и всему тому, чем грезит любой мальчишка. Однажды, ему на глаза попадается интереснейший труд о легендарных Копях Царя Соломона. Флин решает найти мифические сокровища, променяв затхлый воздух помещения и книжных клопов на дух романтики и авантюризма…-IMDBРаздача от группы: Качество: HDTVRip-AVC (Исх. HDTVRip 720)
Формат: MKV
Видео: 1024x576 (16:9), 25 fps, х264, 1929 kbps avg
Аудио: 48 kHz, AC3 Dolby Digital, 3/2 (L,C,R,l,r) + LFE ch, ~384.00 kbps avg RUS
Аудио: 48 kHz, AC3 Dolby Digital, 3/2 (L,C,R,l,r) + LFE ch, ~384.00 kbps avg ENG - отдельно

Mediainfo

General
Complete name : L:\Bibliotekar-1-2-3.chopper887\Bibliotekar-2.chopper887.mkv
Format : Matroska
File size : 1.45 GiB
Duration : 1h 28mn
Overall bit rate : 2 360 Kbps
Movie name : Bibliotekar-2.chopper887
Encoded date : UTC 2011-03-27 10:48:07
Writing application : mkvmerge v4.4.0 ('Die Wiederkehr') built on Nov 7 2010 22:17:07
Writing library : libebml v1.0.0 + libmatroska v1.0.0
Video
ID : 1
Format : AVC
Format/Info : Advanced Video Codec
Format profile : High@L4.1
Format settings, CABAC : Yes
Format settings, ReFrames : 10 frames
Muxing mode : Container profile=Unknown@4.1
Codec ID : V_MPEG4/ISO/AVC
Duration : 1h 28mn
Bit rate : 1 929 Kbps
Nominal bit rate : 1 975 Kbps
Width : 1 024 pixels
Height : 576 pixels
Display aspect ratio : 16:9
Frame rate : 25.000 fps
Resolution : 24 bits
Colorimetry : 4:2:0
Scan type : Progressive
Bits/(Pixel*Frame) : 0.131
Stream size : 1.19 GiB (82%)
Title : Bibliotekar-2.chopper887
Writing library : x264 core 114 r1913 5fd3dce
Encoding settings : cabac=1 / ref=10 / deblock=1:-2:-1 / analyse=0x3:0x133 / me=umh / subme=9 / psy=1 / psy_rd=1.00:0.10 / mixed_ref=1 / me_range=32 / chroma_me=0 / trellis=2 / 8x8dct=1 / cqm=0 / deadzone=21,11 / fast_pskip=0 / chroma_qp_offset=-3 / threads=3 / sliced_threads=0 / nr=0 / decimate=1 / interlaced=0 / constrained_intra=0 / bframes=10 / b_pyramid=2 / b_adapt=2 / b_bias=0 / direct=3 / weightb=1 / open_gop=0 / weightp=2 / keyint=250 / keyint_min=25 / scenecut=40 / intra_refresh=0 / rc_lookahead=80 / rc=2pass / mbtree=1 / bitrate=1975 / ratetol=1.0 / qcomp=0.70 / qpmin=10 / qpmax=51 / qpstep=4 / cplxblur=20.0 / qblur=0.5 / ip_ratio=1.40 / aq=1:1.00
Audio
ID : 2
Format : AC-3
Format/Info : Audio Coding 3
Codec ID : A_AC3
Duration : 1h 28mn
Bit rate mode : Constant
Bit rate : 384 Kbps
Channel(s) : 6 channels
Channel positions : Front: L C R, Surround: L R, LFE
Sampling rate : 48.0 KHz
Stream size : 242 MiB (16%)
Title : Многоголосый

скриншоты

-Библиотекарь 3: Проклятье чаши Иуды / The Librarian: The Curse of the Judas
-Год выпуска:2008
Страна: США
Жанр: Боевик / Фэнтези / Комедия
Продолжительность: 01:26:28
Перевод: Профессиональный (многоголосый, закадровый)
Оригинальная дорожка : английский - отдельно
Русские субтитры: нет-Режиссер: Джонатан Фрайкс / Jonathan Frakes-В ролях: Ноа Уайл, Боб Ньюхарт, Стана Катич, Джейн Куртин, Брюс Дэвисон, Джейсон Дуглас, Тед Олдермен-Описание: Третья часть захватывающих приключений Флина Карсена, в которой Флину вновь предстоит спасти мир, но уже от угрожающего всеобщему спокойствию воскрешения Графа Дракулы. Находясь в отпуске, Флин знакомится с умопомрачительной красоткой Симоной, которая совершенно неожиданно для Флина узнает в нем Библиотекаря и обращается к нему за помощью. Вместе они пытаются опередить русского злодея в поисках Чаши Иуды, которая одна способна воскресить к жизни великого вампира.-IMDBРаздача от группы: Качество: HDTVRip-AVC (Исх. HDTVRip 720)
Формат: MKV
Видео: 1024x576 (16:9), 25 fps, х264, 1913 kbps avg
Аудио: 48 kHz, AC3 Dolby Digital, 3/2 (L,C,R,l,r) + LFE ch, ~448.00 kbps avg RUS
Аудио: 48 kHz, AC3 Dolby Digital, 3/2 (L,C,R,l,r) + LFE ch, ~384.00 kbps avg ENG - отдельно

Mediainfo

General
Complete name : L:\Bibliotekar-1-2-3.chopper887\Bibliotekar-3.chopper887.mkv
Format : Matroska
File size : 1.45 GiB
Duration : 1h 26mn
Overall bit rate : 2 409 Kbps
Movie name : Bibliotekar-3.chopper887
Encoded date : UTC 2011-03-27 11:01:20
Writing application : mkvmerge v4.4.0 ('Die Wiederkehr') built on Nov 7 2010 22:17:07
Writing library : libebml v1.0.0 + libmatroska v1.0.0
Video
ID : 1
Format : AVC
Format/Info : Advanced Video Codec
Format profile : High@L4.1
Format settings, CABAC : Yes
Format settings, ReFrames : 10 frames
Muxing mode : Container profile=Unknown@4.1
Codec ID : V_MPEG4/ISO/AVC
Duration : 1h 26mn
Bit rate : 1 913 Kbps
Nominal bit rate : 1 961 Kbps
Width : 1 024 pixels
Height : 576 pixels
Display aspect ratio : 16:9
Frame rate : 25.000 fps
Resolution : 24 bits
Colorimetry : 4:2:0
Scan type : Progressive
Bits/(Pixel*Frame) : 0.130
Stream size : 1.16 GiB (79%)
Title : Bibliotekar-3.chopper887
Writing library : x264 core 114 r1913 5fd3dce
Encoding settings : cabac=1 / ref=10 / deblock=1:-2:-1 / analyse=0x3:0x133 / me=umh / subme=9 / psy=1 / psy_rd=1.00:0.10 / mixed_ref=1 / me_range=32 / chroma_me=0 / trellis=2 / 8x8dct=1 / cqm=0 / deadzone=21,11 / fast_pskip=0 / chroma_qp_offset=-3 / threads=3 / sliced_threads=0 / nr=0 / decimate=1 / interlaced=0 / constrained_intra=0 / bframes=9 / b_pyramid=2 / b_adapt=2 / b_bias=0 / direct=3 / weightb=1 / open_gop=0 / weightp=2 / keyint=250 / keyint_min=25 / scenecut=40 / intra_refresh=0 / rc_lookahead=80 / rc=2pass / mbtree=1 / bitrate=1961 / ratetol=1.0 / qcomp=0.70 / qpmin=10 / qpmax=51 / qpstep=4 / cplxblur=20.0 / qblur=0.5 / ip_ratio=1.40 / aq=1:1.00
Audio
ID : 2
Format : AC-3
Format/Info : Audio Coding 3
Codec ID : A_AC3
Duration : 1h 26mn
Bit rate mode : Constant
Bit rate : 448 Kbps
Channel(s) : 6 channels
Channel positions : Front: L C R, Surround: L R, LFE
Sampling rate : 48.0 KHz
Stream size : 277 MiB (19%)
Title : Многоголосый

скриншоты



Показать сообщения:    

Текущее время: 14-Дек 21:07

Часовой пояс: UTC ± 0


Вы не можете начинать темы
Вы не можете отвечать на сообщения
Вы не можете редактировать свои сообщения
Вы не можете удалять свои сообщения
Вы не можете голосовать в опросах
Вы не можете прикреплять файлы к сообщениям
Вы не можете скачивать файлы

!ВНИМАНИЕ!
Сайт не предоставляет электронные версии произведений, а занимается лишь коллекционированием и каталогизацией ссылок, присылаемых и публикуемых на форуме нашими читателями. Если вы являетесь правообладателем какого-либо представленного материала и не желаете, чтобы ссылка на него находилась в нашем каталоге, свяжитесь с нами, и мы незамедлительно удалим ее. Файлы для обмена на трекере предоставлены пользователями сайта, и администрация не несет ответственности за их содержание. Просьба не заливать файлы, защищенные авторскими правами, а также файлы нелегального содержания!