Беседы с профессором Михаэлем Лайтманом / серии 1-3 из 3 (Семён Винокур) [2013, телепередача, WEB-DLRip, RUS] :: Ивановский Торрент трекер
Важное объявление!
У Нас Все раздачи мультитрекерные, при нуле пиров в релизах, можете смело вставать на закачку!
Статистика раздачи
Размер:     |    Зарегистрирован:     |    Скачан:     |   
Нет
 
     
 
 
Автор Сообщение

HUNTER

Стаж:
4 года 11 месяцев
Сообщений:
66052

Репутация: 101

[+] [-]
Вне форума [Профиль] [ЛС]

Беседы с профессором Михаэлем Лайтманом / серии 1-3 из 3
-Название: Беседы с профессором Михаэлем Лайтманом
Год выпуска: 2013
Страна: Россия, Израиль
Производство: Ari Films
Жанр: телепередача
Продолжительность: 02:54:23
Перевод: оригинал (русский язык)
Субтитры: нет-В ролях: М. Лайтман, Н. Крупинов
Режиссёр: Семён Винокур-Описание: Нужно понять, что природа совершенна. Эта система спущена сверху, и если мы хотим чувствовать себя в ней хорошо, то должны представлять себя находящимися внутри природы, а не выше неё. Ведь мы лишь маленькая, интегральная её часть - чувствительная и слабая, благодаря своей сверхчувствительности. И потому, стоит просто поучиться у природы, как самым правильным образом достичь с ней равновесия.
Самое главное - это понять, что мы находимся в совершенном, вечном и исправленном мире! А если мы видим его другим, то только потому, что смотрим сквозь свои неисправленные свойства.
Только такой правильный взгляд на мир может построить в нас исправленное отношение к окружению и к самим себе и позволит жить хорошо и уверенно, с надеждой на доброе будущее.-Качество: WEB-DLRip
Формат: AVI
Видеокодек: XviD
Аудиокодек: MP3
Видео: 720 x 400, 25,000 fps, ~ 1000 Kbps, ~ 0.140 bit/pixel
Аудио: 44,1 kHz, 2 (L,R) ch, 128 kb/s-Аудиоверсия телепередачи Беседы с профессором Михаэлем Лайтманом / выпуски 1-3 из 3

Скриншоты

MediaInfo

ОбщееПолное имя : teleprogramma.Besedy_s_professorom_Mihajelem_Lajtmanom.avi\Михаэль Лайтман – Николай Крупинов 1.aviФормат : AVIФормат/Информация : Audio Video InterleaveРазмер файла : 499 МбайтПродолжительность : 1 ч. 1 м.Общий поток : 1141 Кбит/секПрограмма кодирования : Lavf52.93.0
ВидеоИдентификатор : 0Формат : xvidИдентификатор кодека : xvidПродолжительность : 1 ч. 1 м.Битрейт : 1000 Кбит/секШирина : 720 пикселейВысота : 400 пикселейСоотношение сторон : 16:9Частота кадров : 25,000 кадров/секБит/(Пиксели*Кадры) : 0.139Размер потока : 438 Мбайт (88%)
АудиоИдентификатор : 1Формат : MPEG AudioВерсия формата : Version 1Профиль формата : Layer 3Режим : Joint stereoРасширение режима : MS StereoИдентификатор кодека : 55Идентификатор кодека/Подсказка : MP3Продолжительность : 1 ч. 1 м.Вид битрейта : ПостоянныйБитрейт : 128 Кбит/секКаналы : 2 каналаЧастота : 44,1 КГцМетод сжатия : С потерямиРазмер потока : 56,0 Мбайт (11%)Выравнивание : Соединение по промежуткамПродолжительность промежутка : 26 мс. (0,65 видеокадр)Библиотека кодирования : LAME3.98.4

Список серий


01 Михаэль Лайтман – Николай Крупинов 1 - (61:09)
02 Михаэль Лайтман – Николай Крупинов 2 - (52:55)
03 Михаэль Лайтман – Николай Крупинов 3 - (60:19)

_________________
Показать сообщения:    

Текущее время: Сегодня 17:36

Часовой пояс: GMT



Вы не можете начинать темы
Вы не можете отвечать на сообщения
Вы не можете редактировать свои сообщения
Вы не можете удалять свои сообщения
Вы не можете голосовать в опросах
Вы не можете прикреплять файлы к сообщениям
Вы не можете скачивать файлы