Ивановский Торрент трекер
Яндекс.Погода
 

[Цитировать]
HUNTER

Берта по прозвищу Товарный вагон / Boxcar Bertha
Страна: США
Студия: American International Pictures (AIP)
Жанр: криминал, драма, мелодрама
Год выпуска: 1972
Продолжительность: 01:28:50
Перевод 1: Профессиональный (двухголосый закадровый) НТВ+
Перевод 2: Профессиональный (многоголосый закадровый) 5 канал (есть вставки НТВ+)
Cубтитры: английские
Оригинальная аудиодорожка: английский
Режиссер: Мартин Скорсезе / Martin Scorsese
В ролях: Барбара Херши / Barbara Hershey, Дэвид Кэррадайн / David Carradine, Бэрри Праймус / Barry Primus, Берни Кэйси / Bernie Casey, Джон Кэррадайн / John Carradine, Виктор Арго / Victor Argo, Дэвид Остерхут / David Osterhout...
Описание: США, годы Великой депрессии. Тяжелые времена вынуждают профсоюзного активиста Билла Шелли (Дэвид Кэррадайн) стать во главе банды грабителей поездов. Так он получает прозвище Дылда и любовь Берты Томпсон (Барбара Херши), девушки из маленького городка в Арканзасе с воровским прозвищем Товарный Вагон.
II Сэмпл II IMDB II
Доп. информация:
За дорогу НТВ+ спасибо edich2
За дорогу 5 канала спасибо problesk
Тип релиза: WEB-DL 720p
Контейнер: MKV
Видео: AVC / 1280x688 / 16:9 / 23.976fps / Bit rate 4202Kbps
Аудио 1: AC3 / 48.0 KHz / 2ch. / 192kbps / rus / dvo / НТВ+
Аудио 2: AC3 / 48.0 KHz / 2ch. / 192kbps / rus / mvo / 5 канал
Аудио 3: AAC-LC / 48.0 KHz / 2ch. / 101kbps / eng
Формат субтитров: softsub (SRT)

MediaInfo

Общее
Уникальный идентификатор : 176296799905123753926771450795538451866 (0x84A187529252D16B92B4B96ED91B0D9A)
Полное имя : H:\!_Torrent\Boxcar.Bertha.1972.WEB-DL.720p_by_vedigo.mkv
Формат : Matroska
Версия формата : Version 4 / Version 2
Размер файла : 2,96 Гбайт
Продолжительность : 1 ч. 28 м.
Общий поток : 4773 Кбит/сек
Название фильма : Boxcar.Bertha.1972.WEB-DL.720p_by_vedigo
Дата кодирования : UTC 2015-08-16 03:16:09
Программа кодирования : mkvmerge v8.3.0 ('Over the Horizon') 64bit
Библиотека кодирования : libebml v1.3.1 + libmatroska v1.4.2
DURATION : 01:28:46.592000000
NUMBER_OF_FRAMES : 166456
NUMBER_OF_BYTES : 127838208
_STATISTICS_WRITING_APP : mkvmerge v8.3.0 ('Over the Horizon') 64bit
_STATISTICS_WRITING_DATE_UTC : 2015-08-16 03:16:09
_STATISTICS_TAGS : BPS DURATION NUMBER_OF_FRAMES NUMBER_OF_BYTES
Видео
Идентификатор : 1
Формат : AVC
Формат/Информация : Advanced Video Codec
Профиль формата : High@L3.1
Параметр CABAC формата : Нет
Параметр ReFrames формата : 2 кадра
Идентификатор кодека : V_MPEG4/ISO/AVC
Продолжительность : 1 ч. 28 м.
Ширина : 1280 пикселей
Высота : 688 пикселей
Соотношение сторон : 1,85:1
Режим частоты кадров : Постоянный
Частота кадров : 23,976 кадра/сек
Цветовое пространство : YUV
Субдискретизация насыщенности : 4:2:0
Битовая глубина : 8 бит
Тип развёртки : Прогрессивная
Заголовок : Boxcar.Bertha.1972.WEB-DL.720p_by_vedigo
Default : Да
Forced : Нет
Цветовой диапазон : Limited
Основные цвета : BT.709
Характеристики трансфера : BT.709
Коэффициенты матрицы : BT.709
Аудио #1
Идентификатор : 2
Формат : AC-3
Формат/Информация : Audio Coding 3
Расширение режима : CM (complete main)
Параметр Endianness формата : Big
Идентификатор кодека : A_AC3
Продолжительность : 1 ч. 28 м.
Вид битрейта : Постоянный
Битрейт : 192 Кбит/сек
Каналы : 2 канала
Расположение каналов : Front: L R
Частота : 48,0 КГц
Метод сжатия : С потерями
Размер потока : 122 Мбайт (4%)
Заголовок : DVO @ НТВ+
Язык : Russian
Default : Да
Forced : Нет
Аудио #2
Идентификатор : 3
Формат : AC-3
Формат/Информация : Audio Coding 3
Расширение режима : CM (complete main)
Параметр Endianness формата : Big
Идентификатор кодека : A_AC3
Продолжительность : 1 ч. 28 м.
Вид битрейта : Постоянный
Битрейт : 192 Кбит/сек
Каналы : 2 канала
Расположение каналов : Front: L R
Частота : 48,0 КГц
Метод сжатия : С потерями
Размер потока : 122 Мбайт (4%)
Заголовок : MVO @ 5 канал
Язык : Russian
Default : Нет
Forced : Нет
Аудио #3
Идентификатор : 4
Формат : AAC
Формат/Информация : Advanced Audio Codec
Профиль формата : LC
Идентификатор кодека : A_AAC
Продолжительность : 1 ч. 28 м.
Каналы : 2 канала
Расположение каналов : Front: L R
Частота : 48,0 КГц
Метод сжатия : С потерями
Заголовок : original
Язык : English
Default : Нет
Forced : Нет
Текст
Идентификатор : 5
Формат : UTF-8
Идентификатор кодека : S_TEXT/UTF8
Идентификатор кодека/Информация : UTF-8 Plain Text
Заголовок : subtitle eng
Язык : English
Default : Нет
Forced : Нет

Скриншоты


0 человек читают эту тему: 0 пользователей, 0 скрытых пользователей, 0 гостей

Показать сообщения:    

Текущее время: 23-Авг 11:05

Часовой пояс: UTC - 1


Вы не можете начинать темы
Вы не можете отвечать на сообщения
Вы не можете редактировать свои сообщения
Вы не можете удалять свои сообщения
Вы не можете голосовать в опросах
Вы не можете прикреплять файлы к сообщениям
Вы не можете скачивать файлы

!ВНИМАНИЕ!
Сайт не предоставляет электронные версии произведений, а занимается лишь коллекционированием и каталогизацией ссылок, присылаемых и публикуемых на форуме нашими читателями. Если вы являетесь правообладателем какого-либо представленного материала и не желаете, чтобы ссылка на него находилась в нашем каталоге, свяжитесь с нами, и мы незамедлительно удалим ее. Файлы для обмена на трекере предоставлены пользователями сайта, и администрация не несет ответственности за их содержание. Просьба не заливать файлы, защищенные авторскими правами, а также файлы нелегального содержания!