Важное объявление!
У Нас Все раздачи мультитрекерные, при нуле пиров в релизах, можете смело вставать на закачку!
 
Автор Сообщение

HUNTER

Стаж:
4 года 7 месяцев
Сообщений:
61487

Репутация: 101

[+] [-]
Вне форума [Профиль] [ЛС]

Берлин. Май 1945
Год выпуска: 2013
Страна: Россия
Жанр: Документальный
Продолжительность: 00:40:17+00:39:03
Перевод: Не требуется
Режиссер: Олег Червериков
Описание: К маю 1945 года союзники СССР начали проводить активную политику по нивелированию роли Советского Союза в Победе во Второй мировой войне. Берлин оказался на острие встречной политики. И тогда СССР сделал изящный шаг - Берлин превратился в концертную площадку - повсюду звучала русская песня. Заработали полевые кухни. Русский дух витал повсюду - солдаты союзнических армий и сами подпевали "Валенки" и пританцовывали под "Яблочко". Именно на таком фоне проходило подписание акта капитуляции. И уже никто не сомневался, что это наша Победа.
Запись со спутника Yamal 202
Сэмпл
качество: DVB
формат: MPG
видеокодек: MPEG2
аудиокодек: MP2
Видео: MPEG2, 704х576, 4840 Kbps, 25 fps, Bits/(Pixel*Frame) : 0.477
Аудио: MP2, 192 Kbps, 2 ch, 48 KHz

MediaInfo

E:\Документалистика\Берлин. Май 1945\Берлин. Май 1945 - 1 серия.mpg
General
Complete name : E:\Документалистика\Берлин. Май 1945\Берлин. Май 1945 - 1 серия.mpg
Format : MPEG-PS
File size : 1.44 GiB
Duration : 40mn 17s
Overall bit rate mode : Variable
Overall bit rate : 5 118 Kbps
Writing library : (c) 1998-2011 Womble Multimedia, Inc. / MPEG Video Wizard DVD 5.0.1.100 (03/2011) / May 27 2011
Video #224
ID : 224 (0xE0)
Format : MPEG Video
Format version : Version 2
Format profile : Main@Main
Format settings, BVOP : Yes
Format settings, Matrix : Custom
Duration : 40mn 17s
Bit rate mode : Variable
Bit rate : 4 840 Kbps
Width : 704 pixels
Height : 576 pixels
Display aspect ratio : 4:3
Frame rate : 25.000 fps
Standard : PAL
Color space : YUV
Chroma subsampling : 4:2:0
Bit depth : 8 bits
Scan type : Interlaced
Scan order : Top Field First
Compression mode : Lossy
Bits/(Pixel*Frame) : 0.477
Stream size : 1.36 GiB (94%)
Writing library : (c) 1998-2011 Womble Multimedia, Inc. / MPEG Video Wizard DVD 5.0.1.100 (03/2011) / May 27 2011
Audio #192
ID : 192 (0xC0)
Format : MPEG Audio
Format version : Version 1
Format profile : Layer 2
Duration : 40mn 17s
Bit rate mode : Constant
Bit rate : 192 Kbps
Channel(s) : 2 channels
Sampling rate : 48.0 KHz
Compression mode : Lossy
Stream size : 55.3 MiB (4%)

Скриншоты


_________________
Показать сообщения:    

Текущее время: Сегодня 05:36

Часовой пояс: GMT



Вы не можете начинать темы
Вы не можете отвечать на сообщения
Вы не можете редактировать свои сообщения
Вы не можете удалять свои сообщения
Вы не можете голосовать в опросах
Вы не можете прикреплять файлы к сообщениям
Вы не можете скачивать файлы
Наши партнеры: интернет магазин Ивановского трикотажа textilla.ru