Важное объявление!
У Нас Все раздачи мультитрекерные, при нуле пиров в релизах, можете смело вставать на закачку!
 
Автор Сообщение

HUNTER

Стаж:
4 года 9 месяцев
Сообщений:
65033

Репутация: 101

[+] [-]
Вне форума [Профиль] [ЛС]

Беовульф / Beowulf-
Страна: США, Великобритания
Студия: Capitol Films, European Motion Pictures Productions Ltd., Kushner-Locke Company, Threshold Entertainment
Жанр: Ужасы, фантастика, фэнтези, боевик
Год выпуска: 1999
Продолжительность: 01:33:22
Перевод 1: Профессиональный (дублированный) Мосфильм-Мастер
Перевод 2: Одноголосый закадровый Чадов
Перевод 3: Одноголосый закадровый Антонов
Cубтитры: Русские, Английские
Оригинальная аудиодорожка: Английский
Режиссер: Грэм Бейкер / Graham Baker
В ролях: Кристофер Ламберт, Рона Митра, Оливер Коттон, Гёц Отто, Винсент Хэммонд, Чарльз Робинсон, Брент Джеффресон Лоу, Роджер Сломан, Лайла Робертс, Роберт Уиллокс.
Описание: В далеком будущем, после мирового катаклизма, у человека слишком много врагов и слишком мало шансов, чтобы выжить. Единственное спасение для мирных жителей — создавать крепости.
Но когда последняя крепость рухнет под натиском сил Тьмы, останется одна-единственная надежда на спасение — неуловимый и бесстрашный Беовульф.-Рейтинг
[img]https://rating.kinopoisk.ru/23696.gif[/img]-Сэмпл
Тип релиза: WEB-DL 1080p
Контейнер: MKV
Видео: 1920x1040 (1,85:1), 23.976 fps, x264, ~13600 kbps
Аудио 1: Russian: 48 kHz, AC3, 3/2 (L,C,R,l,r) + LFE ch, ~448 kbps | Дубляж, Мосфильм-Мастер
Аудио 2: Russian: 48 kHz, AC3, 2/0 (L,R) ch, ~192 kbps | Одноголосый закадровый, Чадов
Аудио 3: Russian: 48 kHz, AC3, 2/0 (L,R) ch, ~192 kbps | Одноголосый закадровый, Антонов
Аудио 4: English: 48 kHz, E-AC3, 2/0 (L,R) ch, ~224 kbps
Субтитры: Русские (Full), Английские (SDH)
Формат субтитров: softsub (SRT)

Дополнительно

За дорожку Антонова спасибо [url=viewtopic.php?t=5060587]Ansent[/url] и duckling-by2.
Перевод М. Чадова, доступен благодаря ресурсу "Переулок Переводмана". Заказ перевода mihey10. Работа со звуком mihaildns.

MediaInfo

Общее
Unique ID : 192650832311730329506702425727552700788 (0x90EF335F8113B5E999C6CB2D2D27C174)
Complete name : E:\video_rutracker\Beowulf.1999.WEB-DL.1080p.3xRus.Eng.H.264.mkv
Format : Matroska
Format version : Version 2
File size : 9,75 Гбайт
Duration : 1 ч. 33 м.
Overall bit rate mode : Переменный
Overall bit rate : 15,0 Мбит/сек
Movie name : Beowulf.1999.WEB-DL.1080p | RuTracker | igrok2012
Encoded date : UTC 2016-08-26 17:43:43
Writing application : mkvmerge v8.3.0 ('Over the Horizon') 64bit
Writing library : libebml v1.3.1 + libmatroska v1.4.2
Cover : Yes
Attachments : cover.jpg
Видео
ID : 1
Format : AVC
Format/Info : Advanced Video Codec
Format profile : High@L4
Format settings, CABAC : Да
Format settings, ReFrames : 4 кадра
Codec ID : V_MPEG4/ISO/AVC
Duration : 1 ч. 33 м.
Bit rate mode : Переменный
Bit rate : 13,6 Мбит/сек
Maximum bit rate : 15,0 Мбит/сек
Width : 1920 пикселей
Height : 1040 пикселей
Display aspect ratio : 1,85:1
Frame rate mode : Постоянный
Frame rate : 23,976 (24000/1001) кадра/сек
Color space : YUV
Chroma subsampling : 4:2:0
Bit depth : 8 бит
Scan type : Прогрессивная
Bits/(Pixel*Frame) : 0.284
Stream size : 8,87 Гбайт (91%)
Writing library : x264 core 148 r2623 d5b2374
Encoding settings : cabac=1 / ref=4 / deblock=1:-1:-1 / analyse=0x3:0x133 / me=umh / subme=9 / psy=1 / psy_rd=1.00:0.15 / mixed_ref=1 / me_range=24 / chroma_me=1 / trellis=2 / 8x8dct=1 / cqm=0 / deadzone=21,11 / fast_pskip=1 / chroma_qp_offset=-3 / threads=32 / lookahead_threads=5 / sliced_threads=0 / nr=150 / decimate=1 / interlaced=0 / bluray_compat=0 / constrained_intra=0 / bframes=8 / b_pyramid=2 / b_adapt=2 / b_bias=0 / direct=3 / weightb=1 / open_gop=0 / weightp=2 / keyint=120 / keyint_min=61 / scenecut=0 / intra_refresh=0 / rc_lookahead=120 / rc=crf / mbtree=1 / crf=18.0 / qcomp=0.60 / qpmin=0 / qpmax=69 / qpstep=4 / vbv_maxrate=15000 / vbv_bufsize=31250 / crf_max=0.0 / nal_hrd=vbr / filler=0 / ip_ratio=1.40 / aq=3:1.00
Default : Да
Forced : Нет
Color range : Limited
Color primaries : BT.709
Transfer characteristics : BT.709
Matrix coefficients : BT.709
Аудио #1
ID : 2
Format : AC-3
Format/Info : Audio Coding 3
Mode extension : CM (complete main)
Format settings, Endianness : Big
Codec ID : A_AC3
Duration : 1 ч. 33 м.
Bit rate mode : Постоянный
Bit rate : 448 Кбит/сек
Channel(s) : 6 каналов
Channel positions : Front: L C R, Side: L R, LFE
Sampling rate : 48,0 КГц
Frame rate : 31,250 кадров/сек (1536 spf)
Compression mode : С потерями
Stream size : 299 Мбайт (3%)
Title : Дубляж, Мосфильм-Мастер
Language : Russian
Default : Да
Forced : Нет
Аудио #2
ID : 3
Format : AC-3
Format/Info : Audio Coding 3
Mode extension : CM (complete main)
Format settings, Endianness : Big
Codec ID : A_AC3
Duration : 1 ч. 33 м.
Bit rate mode : Постоянный
Bit rate : 192 Кбит/сек
Channel(s) : 2 канала
Channel positions : Front: L R
Sampling rate : 48,0 КГц
Frame rate : 31,250 кадров/сек (1536 spf)
Compression mode : С потерями
Stream size : 128 Мбайт (1%)
Title : Одноголосый закадровый, Чадов
Language : Russian
Default : Нет
Forced : Нет
Аудио #3
ID : 4
Format : AC-3
Format/Info : Audio Coding 3
Mode extension : CM (complete main)
Format settings, Endianness : Big
Codec ID : A_AC3
Duration : 1 ч. 33 м.
Bit rate mode : Постоянный
Bit rate : 192 Кбит/сек
Channel(s) : 2 канала
Channel positions : Front: L R
Sampling rate : 48,0 КГц
Frame rate : 31,250 кадров/сек (1536 spf)
Compression mode : С потерями
Stream size : 128 Мбайт (1%)
Title : Одноголосый закадровый, Антонов
Language : Russian
Default : Нет
Forced : Нет
Аудио #4
ID : 5
Format : E-AC-3
Format/Info : Audio Coding 3
Format settings, Endianness : Big
Codec ID : A_EAC3
Duration : 1 ч. 33 м.
Bit rate mode : Постоянный
Bit rate : 224 Кбит/сек
Channel(s) : 2 канала
Channel positions : Front: L R
Sampling rate : 48,0 КГц
Frame rate : 187,500 кадров/сек (256 spf)
Compression mode : С потерями
Stream size : 150 Мбайт (1%)
Language : English
Default : Нет
Forced : Нет
Текст #1
ID : 6
Format : UTF-8
Codec ID : S_TEXT/UTF8
Codec ID/Info : UTF-8 Plain Text
Language : Russian
Default : Нет
Forced : Нет
Текст #2
ID : 7
Format : UTF-8
Codec ID : S_TEXT/UTF8
Codec ID/Info : UTF-8 Plain Text
Title : SDH
Language : English
Default : Нет
Forced : Нет

Скриншоты



_________________
Показать сообщения:    

Текущее время: Сегодня 22:06

Часовой пояс: GMT



Вы не можете начинать темы
Вы не можете отвечать на сообщения
Вы не можете редактировать свои сообщения
Вы не можете удалять свои сообщения
Вы не можете голосовать в опросах
Вы не можете прикреплять файлы к сообщениям
Вы не можете скачивать файлы