Ивановский Торрент трекер
Яндекс.Погода
 

[Цитировать]
HUNTER

Бенгальский тигр / Der Tiger von Eschnapur Страна: Германия (ФРГ), Франция, Италия
Жанр: Приключения
Год выпуска: 1959
Продолжительность: 01.40.57
Перевод: Профессиональный (многоголосый закадровый) "DVD Магия"
Cубтитры: английские, португальские, немецкие
Оригинальная аудиодорожка: немецкий
Режиссер: Фриц Ланг / Fritz Lang
В ролях: Дебра Пейджит, Пауль Хубшмид, Вальтер Райер, Клаус Хольм, Лучана Палуцци, Валерий Инкижинов, Сабина Бетман, Анджела Порталури, Рене Делтген, Гуидо Челано
Описание: Индия, начало ХХ века. Немецкий архитектор Харальд Бергер призван ко двору махараджи Эшнапура Чандры, чтобы выполнить ряд работ (реставрация дворца, строительство больниц). Перед те как прибыть в Эшнапур, Бергер спасает жизнь Ситхи, молодой танцовщицы из храма Варанаси, также приглашенной ко двору недавно овдовевшего Чандры, который влюблен в нее...
Доп. информация: Рип с немецкого Blu-ray Disc, найден в сети. Видео не менялось, битрейт оригинальной дорожки также не менялся, только добавлена русская дорожка.
Спасибо таурус за подсказку авторства многоголоски.
Синхронизация - Aleksgreek.
Нелегко было синхронизировать аудиодорожку по разным дубляжам, но всё же получилось.
Это - первый фильм дилогии. Продолжение - "Индийская гробница / Das indische Grabmal" находится здесь: http://rutracker.org/forum/viewtopic.php?t=4840652
Вариант с битрейтом 2399 кб/с, находится здесь: http://rutracker.org/forum/viewtopic.php?t=4642701
Данный формат воспроизводится не всеми бытовыми проигрывателями.
Хранить на жёстком диске долго не могу, поэтому поддержите пожалуйста, кому это не трудно.
Сэмпл: http://sendfile.su/1031974
Качество видео: BDRip 720p
Формат видео: MKV
Видео: AVC, 960Х720, 4:3, 23.976 fps, 6 500 Kbps
Аудио: АС3, 48 KHz, 192 Kbps, 2 channels, русский
Аудио 2: АС3, 48 KHz, 640 Kbps, 2 channels, немецкий

MediaInfo

Format : Matroska
Format version : Version 2
File size : 5.17 GiB
Duration : 1h 40mn
Overall bit rate : 7 337 Kbps
Encoded date : UTC 2014-10-05 05:16:43
Writing application : mkvmerge v5.7.0 ('The Whirlwind') built on Jul 8 2012 20:08:51
Writing library : libebml v1.2.3 + libmatroska v1.3.0
Video
ID : 1
Format : AVC
Format/Info : Advanced Video Codec
Format profile : High@L3.1
Format settings, CABAC : Yes
Format settings, ReFrames : 6 frames
Codec ID : V_MPEG4/ISO/AVC
Duration : 1h 40mn
Bit rate : 6 500 Kbps
Width : 960 pixels
Height : 720 pixels
Display aspect ratio : 4:3
Frame rate mode : Constant
Frame rate : 23.976 fps
Color space : YUV
Chroma subsampling : 4:2:0
Bit depth : 8 bits
Scan type : Progressive
Bits/(Pixel*Frame) : 0.392
Stream size : 4.48 GiB (87%)
Writing library : x264 core 130 r2273 b3065e6
Encoding settings : cabac=1 / ref=6 / deblock=1:-3:-3 / analyse=0x3:0x133 / me=umh / subme=9 / psy=1 / psy_rd=1.00:0.00 / mixed_ref=1 / me_range=24 / chroma_me=1 / trellis=2 / 8x8dct=1 / cqm=0 / deadzone=21,11 / fast_pskip=1 / chroma_qp_offset=-2 / threads=18 / lookahead_threads=2 / sliced_threads=0 / nr=0 / decimate=1 / interlaced=0 / bluray_compat=0 / constrained_intra=0 / bframes=5 / b_pyramid=2 / b_adapt=2 / b_bias=0 / direct=1 / weightb=1 / open_gop=0 / weightp=2 / keyint=240 / keyint_min=24 / scenecut=40 / intra_refresh=0 / rc_lookahead=40 / rc=2pass / mbtree=1 / bitrate=6500 / ratetol=1.0 / qcomp=0.60 / qpmin=0 / qpmax=69 / qpstep=4 / cplxblur=20.0 / qblur=0.5 / ip_ratio=1.40 / aq=1:1.00
Language : English
Default : Yes
Forced : No
Color primaries : BT.709
Transfer characteristics : BT.709
Matrix coefficients : BT.709
Audio #1
ID : 2
Format : AC-3
Format/Info : Audio Coding 3
Mode extension : CM (complete main)
Format settings, Endianness : Big
Muxing mode : Header stripping
Codec ID : A_AC3
Duration : 1h 40mn
Bit rate mode : Constant
Bit rate : 192 Kbps
Channel count : 2 channels
Channel positions : Front: L R
Sampling rate : 48.0 KHz
Bit depth : 16 bits
Compression mode : Lossy
Stream size : 139 MiB (3%)
Language : Russian
Default : Yes
Forced : No
Audio #2
ID : 3
Format : AC-3
Format/Info : Audio Coding 3
Mode extension : CM (complete main)
Format settings, Endianness : Big
Muxing mode : Header stripping
Codec ID : A_AC3
Duration : 1h 40mn
Bit rate mode : Constant
Bit rate : 640 Kbps
Channel count : 2 channels
Channel positions : Front: L R
Sampling rate : 48.0 KHz
Bit depth : 16 bits
Compression mode : Lossy
Stream size : 462 MiB (9%)
Language : German
Default : No
Forced : No
Text #1
ID : 4
Format : UTF-8
Codec ID : S_TEXT/UTF8
Codec ID/Info : UTF-8 Plain Text
Language : English
Default : No
Forced : No
Text #2
ID : 5
Format : UTF-8
Codec ID : S_TEXT/UTF8
Codec ID/Info : UTF-8 Plain Text
Language : Portuguese
Default : No
Forced : No
Text #3
ID : 6
Format : VobSub
Muxing mode : zlib
Codec ID : S_VOBSUB
Codec ID/Info : The same subtitle format used on DVDs
Language : German
Default : No
Forced : No
Menu
00:00:00.000 : en:Chapter 1
00:02:26.938 : en:Chapter 2
00:11:58.050 : en:Chapter 3
00:19:23.495 : en:Chapter 4
00:30:22.654 : en:Chapter 5
00:41:53.677 : en:Chapter 6
00:51:47.729 : en:Chapter 7
01:01:21.177 : en:Chapter 8
01:10:52.957 : en:Chapter 9
01:20:17.312 : en:Chapter 10
01:28:00.191 : en:Chapter 11
01:39:08.692 : en:Chapter 12

Скриншот c названием фильма

Скриншоты

Показать сообщения:    

Текущее время: 17-Окт 01:16

Часовой пояс: UTC - 1


Вы не можете начинать темы
Вы не можете отвечать на сообщения
Вы не можете редактировать свои сообщения
Вы не можете удалять свои сообщения
Вы не можете голосовать в опросах
Вы не можете прикреплять файлы к сообщениям
Вы не можете скачивать файлы

!ВНИМАНИЕ!
Сайт не предоставляет электронные версии произведений, а занимается лишь коллекционированием и каталогизацией ссылок, присылаемых и публикуемых на форуме нашими читателями. Если вы являетесь правообладателем какого-либо представленного материала и не желаете, чтобы ссылка на него находилась в нашем каталоге, свяжитесь с нами, и мы незамедлительно удалим ее. Файлы для обмена на трекере предоставлены пользователями сайта, и администрация не несет ответственности за их содержание. Просьба не заливать файлы, защищенные авторскими правами, а также файлы нелегального содержания!