Важное объявление!
У Нас Все раздачи мультитрекерные, при нуле пиров в релизах, можете смело вставать на закачку!
 
Автор Сообщение

HUNTER

Стаж:
4 года 10 месяцев
Сообщений:
65511

Репутация: 101

[+] [-]
Вне форума [Профиль] [ЛС]

Белый Олеандр / White Oleander«Любовь смертельна, как яд Олеандра»
Страна: США
Жанр: драма
Год выпуска: 2002
Продолжительность: 01:49:30
-
Перевод 1: Профессиональный (дублированный) Пирамида
Перевод 2: Профессиональный (многоголосый закадровый) Синема Трейд
Перевод 3: Профессиональный (двухголосый закадровый) CP Дистрибуция *
Cубтитры: русские, английские [SDH]
Оригинальная аудиодорожка: английский
-
Режиссер: Питер Козмински / Peter Kosminsky
В ролях: Элисон Ломан, Мишель Пфайффер, Робин Райт, Рене Зеллвегер, Эми Акино, Билли Коннолли, Светлана Ефремова, Патрик Фьюджит, Тэрин Мэннинг, Коул Хаузер
-
Описание: Очаровательная поэтесса Ингрид Магнуссен безумно влюблена в симпатичного Барри, не подозревая, что ее счастье скоро сменится горьким разочарованием. Сгорая от жажды мести, она отравляет изменника ядом белого олеандра. Юная Астрид Магнуссен, навсегда потеряв свою мать, отбывающую пожизненное заключение, слишком рано узнаёт, что такое одиночество, отчаяние и страх. Но, несмотря ни на что, она продолжает любить свою мать, учась у нее выживать в жестоком мире и уча ее любить без боли и страданий.
[img]https://rating.kinopoisk.ru/882.gif[/img]
* Захват звука с канала Иллюзион+ / Eutelsat 36A/36B (36°E)
Тип релиза: WEB-DL 720p
Контейнер: MKV
Видео: H.264 / NTSC 16:9 / 1280x718 (1,78:1) / 4251 kbps / 23,976 fps / 0.193 bit/pixel / High@L3.1
Аудио 1: Russian / Dolby Digital Audio / 5.0 Ch / 48 kHz / 448 kbps / 16 bit / DUB / Пирамида
Аудио 2: Russian / Dolby Digital Audio / 2.0 Ch / 48 kHz / 192 kbps / 16 bit / MVO / Синема Трейд
Аудио 3: Russian / Dolby Digital Audio / 2.0 Ch / 48 kHz / 192 kbps / 16 bit / DVO / CP Дистрибуция
Аудио 4: English / Dolby Digital Audio / 5.1 Ch / 48 kHz / 384 kbps / 16 bit / Original
Формат субтитров: softsub (SRT)
Навигация по главам: есть

Примечание

[url=viewtopic.php?t=964995]Здесь[/url]
Код:
дубляж с LFE каналом-пустышкой, пересобрал в 5.0 Ch

MediaInfo

Код:
Общее
Уникальный идентификатор                 : 175291847143319607536615490006399253113 (0x83DFFB53720ACEACBDC099B0A7FAFA79)
Полное имя                               : N:\WEB-DL 720p\White Oleander.2002.WEB-DL.720p.mkv
Формат                                   : Matroska
Версия формата                           : Version 4 / Version 2
Размер файла                             : 4,18 Гбайт
Продолжительность                        : 1 ч. 49 м.
Общий поток                              : 5467 Кбит/сек
Название фильма                          : Release for RuTracker © flaSI-I
Дата кодирования                         : UTC 2016-09-02 00:11:24
Программа кодирования                    : mkvmerge v9.4.0 ('Knurl') 64bit
Библиотека кодирования                   : libebml v1.3.4 + libmatroska v1.4.5
Видео
Идентификатор                            : 1
Формат                                   : AVC
Формат/Информация                        : Advanced Video Codec
Профиль формата                          : High@L3.1
Параметр CABAC формата                   : Нет
Параметр ReFrames формата                : 2 кадра
Параметр GOP формата                     : N=1
Идентификатор кодека                     : V_MPEG4/ISO/AVC
Продолжительность                        : 1 ч. 49 м.
Битрейт                                  : 4251 Кбит/сек
Ширина                                   : 1280 пикселей
Высота                                   : 718 пикселей
Соотношение сторон                       : 16:9
Режим частоты кадров                     : Постоянный
Частота кадров                           : 23,976 (23976/1000) кадра/сек
Цветовое пространство                    : YUV
Субдискретизация насыщенности            : 4:2:0
Битовая глубина                          : 8 бит
Тип развёртки                            : Прогрессивная
Бит/(Пиксели*Кадры)                      : 0.193
Размер потока                            : 3,25 Гбайт (78%)
Язык                                     : English
Default                                  : Да
Forced                                   : Нет
Цветовой диапазон                        : Limited
Основные цвета                           : BT.709
Характеристики трансфера                 : BT.709
Коэффициенты матрицы                     : BT.709
Аудио #1
Идентификатор                            : 2
Формат                                   : AC-3
Формат/Информация                        : Audio Coding 3
Расширение режима                        : CM (complete main)
Параметр Endianness формата              : Big
Идентификатор кодека                     : A_AC3
Продолжительность                        : 1 ч. 49 м.
Вид битрейта                             : Постоянный
Битрейт                                  : 448 Кбит/сек
Каналы                                   : 5 каналов
Расположение каналов                     : Front: L C R, Side: L R
Частота                                  : 48,0 КГц
Частота кадров                           : 31,250 кадров/сек (1536 spf)
Метод сжатия                             : С потерями
Размер потока                            : 351 Мбайт (8%)
Заголовок                                : DUB / Пирамида
Язык                                     : Russian
Default                                  : Да
Forced                                   : Нет
Аудио #2
Идентификатор                            : 3
Формат                                   : AC-3
Формат/Информация                        : Audio Coding 3
Расширение режима                        : CM (complete main)
Параметр Endianness формата              : Big
Идентификатор кодека                     : A_AC3
Продолжительность                        : 1 ч. 49 м.
Вид битрейта                             : Постоянный
Битрейт                                  : 192 Кбит/сек
Каналы                                   : 2 канала
Расположение каналов                     : Front: L R
Частота                                  : 48,0 КГц
Частота кадров                           : 31,250 кадров/сек (1536 spf)
Метод сжатия                             : С потерями
Размер потока                            : 150 Мбайт (4%)
Заголовок                                : MVO / Синема Трейд
Язык                                     : Russian
Default                                  : Нет
Forced                                   : Нет
Аудио #3
Идентификатор                            : 4
Формат                                   : AC-3
Формат/Информация                        : Audio Coding 3
Расширение режима                        : CM (complete main)
Параметр Endianness формата              : Big
Идентификатор кодека                     : A_AC3
Продолжительность                        : 1 ч. 47 м.
Вид битрейта                             : Постоянный
Битрейт                                  : 192 Кбит/сек
Каналы                                   : 2 канала
Расположение каналов                     : Front: L R
Частота                                  : 48,0 КГц
Частота кадров                           : 31,250 кадров/сек (1536 spf)
Метод сжатия                             : С потерями
Размер потока                            : 148 Мбайт (3%)
Заголовок                                : DVO / CP Дистрибуция
Язык                                     : Russian
Default                                  : Нет
Forced                                   : Нет
Аудио #4
Идентификатор                            : 5
Формат                                   : AC-3
Формат/Информация                        : Audio Coding 3
Расширение режима                        : CM (complete main)
Параметр Endianness формата              : Big
Идентификатор кодека                     : A_AC3
Продолжительность                        : 1 ч. 49 м.
Вид битрейта                             : Постоянный
Битрейт                                  : 384 Кбит/сек
Каналы                                   : 6 каналов
Расположение каналов                     : Front: L C R, Side: L R, LFE
Частота                                  : 48,0 КГц
Частота кадров                           : 31,250 кадров/сек (1536 spf)
Метод сжатия                             : С потерями
Размер потока                            : 301 Мбайт (7%)
Заголовок                                : Original
Язык                                     : English
Default                                  : Нет
Forced                                   : Нет
Текст #1
Идентификатор                            : 6
Формат                                   : UTF-8
Идентификатор кодека                     : S_TEXT/UTF8
Идентификатор кодека/Информация          : UTF-8 Plain Text
Продолжительность                        : 1 ч. 45 м.
Битрейт                                  : 101 бит/сек
Count of elements                        : 1264
Размер потока                            : 78,4 Кбайт (0%)
Заголовок                                : DVD
Язык                                     : Russian
Default                                  : Нет
Forced                                   : Нет
Текст #2
Идентификатор                            : 7
Формат                                   : UTF-8
Идентификатор кодека                     : S_TEXT/UTF8
Идентификатор кодека/Информация          : UTF-8 Plain Text
Продолжительность                        : 1 ч. 44 м.
Битрейт                                  : 52 бит/сек
Count of elements                        : 1494
Размер потока                            : 40,6 Кбайт (0%)
Заголовок                                : Original / SDH
Язык                                     : English
Default                                  : Нет
Forced                                   : Нет
Меню
00:00:00.000                             : en:working back.
00:02:35.000                             : en:feeling the wind.
00:05:38.000                             : en:barry.
00:10:57.000                             : en:arrested.
00:12:55.000                             : en:starr and ray.
00:16:48.000                             : en:both in prison.
00:20:32.000                             : en:knowing things.
00:24:30.000                             : en:the enemy.
00:29:48.000                             : en:hard getting older.
00:34:21.000                             : en:breaking point.
00:40:31.000                             : en:mutual threats.
00:42:55.000                             : en:not interested in paul.
00:46:53.000                             : en:runaway artists.
00:51:58.000                             : en:question of happiness.
00:54:59.000                             : en:claire.
00:59:34.000                             : en:how's she doing?
01:05:11.000                             : en:love humiliates.
01:11:09.000                             : en:broken people.
01:15:19.000                             : en:poisoned with words.
01:18:33.000                             : en:two choices.
01:21:28.000                             : en:rena.
01:24:02.000                             : en:their project.
01:26:33.000                             : en:propositions.
01:30:44.000                             : en:trade for the truth.
01:34:41.000                             : en:price of belonging.
01:39:56.000                             : en:held close and left alone.
01:43:53.000                             : en:secret wanting.
01:45:52.000                             : en:end credits.

Скриншоты


_________________
Показать сообщения:    

Текущее время: Сегодня 13:10

Часовой пояс: GMT



Вы не можете начинать темы
Вы не можете отвечать на сообщения
Вы не можете редактировать свои сообщения
Вы не можете удалять свои сообщения
Вы не можете голосовать в опросах
Вы не можете прикреплять файлы к сообщениям
Вы не можете скачивать файлы