Важное объявление!
У Нас Все раздачи мультитрекерные, при нуле пиров в релизах, можете смело вставать на закачку!
 
Автор Сообщение

HUNTER

Стаж:
4 года 9 месяцев
Сообщений:
65008

Репутация: 101

[+] [-]
Вне форума [Профиль] [ЛС]

Белоснежка / Snow white
Страна: США, Япония
Жанр: драма, мелодрама, семейный
Продолжительность: 00:42:26
Год выпуска: 1995
Русские субтитры: нет
Режиссёр: Тошиюки Хирума, Такаши
Описание: В далеком королевства жила-была Белоснежка, и была она очень счастлива до тех пор, пока Волшебное Зеркало не рассказало злой и тщеславной Королеве, что Белоснежка гораздо красивее ее. Спасаясь от гнева Королевы, Белоснежка убежала подальше в темный и страшный лес, где случайно набрела на маленький домик, в котором жили семь гномов. Девушка осталась жить с маленькими добрыми человечками, но однажды у дверей появилась старая, сморщенная ведьма, и угостила Белоснежку очень спелым красным яблоком…
Качество: VHSRip
Формат: AVI
Видео: XVID, 352x272, 25.000 fps, 913 Kbps
Аудио: MP3, 192 Kbps, 2 channels, 44.1 KHz
Субтитры: отсутствуют

Подробные технические данные

GeneralComplete name : C:\Users\Леночка\Documents\Белоснежка.aviFormat : AVIFormat/Info : Audio Video InterleaveFile size : 339 MiBDuration : 42mn 26sOverall bit rate : 1 118 KbpsWriting application : Lavf55.19.104
VideoID : 0Format : MPEG-4 VisualFormat profile : Simple@L1Format settings, BVOP : NoFormat settings, QPel : NoFormat settings, GMC : No warppointsFormat settings, Matrix : Default (H.263)Codec ID : XVIDCodec ID/Hint : XviDDuration : 42mn 26sBit rate : 913 KbpsWidth : 352 pixelsHeight : 272 pixelsDisplay aspect ratio : 1.294Frame rate : 25.000 fpsColor space : YUVChroma subsampling : 4:2:0Bit depth : 8 bitsScan type : ProgressiveCompression mode : LossyBits/(Pixel*Frame) : 0.382Stream size : 277 MiB (82%)Writing library : Lavc55.39.100
AudioID : 1Format : MPEG AudioFormat version : Version 1Format profile : Layer 3Mode : Joint stereoMode extension : MS StereoCodec ID : 55Codec ID/Hint : MP3Duration : 42mn 26sBit rate mode : ConstantBit rate : 192 KbpsChannel(s) : 2 channelsSampling rate : 44.1 KHzCompression mode : LossyStream size : 58.3 MiB (17%)Alignment : Aligned on interleavesInterleave, duration : 26 ms (0.65 video frame)Interleave, preload duration : 26 ms

Скриншоты





_________________
Показать сообщения:    

Текущее время: Сегодня 19:04

Часовой пояс: GMT



Вы не можете начинать темы
Вы не можете отвечать на сообщения
Вы не можете редактировать свои сообщения
Вы не можете удалять свои сообщения
Вы не можете голосовать в опросах
Вы не можете прикреплять файлы к сообщениям
Вы не можете скачивать файлы