Важное объявление!
У Нас Все раздачи мультитрекерные, при нуле пиров в релизах, можете смело вставать на закачку!
 
Автор Сообщение

HUNTER

Стаж:
4 года 8 месяцев
Сообщений:
62035

Репутация: 101

[+] [-]
Вне форума [Профиль] [ЛС]

Белоснежка / Snow White

Страна: США
Жанр: мультфильм, семейный, сказка
Продолжительность: 00:48:46
Год выпуска: 1994
Перевод: Профессиональный (дублированный)
Русские субтитры: нет

Режиссёр: Кэмун Сонг / Kamoon Song, Диана Эшкенази / Diane Eskenazi
Описание: Музыкальный мультфильм по сказке братьев Гримм о Белоснежке, жившей в замке со злой мачехой-королевой, очень гордившейся своей красотой. Однажды волшебное зеркало поведало королеве, что Белоснежка красивее ее. Чтобы избежать гнева королевы, Белоснежке приходится бежать в чащу леса и поселиться у семи гномов. Но злая королева, притворившись старухой, находит ее там чтобы угостить отравленным яблоком...
Качество: [url=viewtopic.php?t=5000459]DVDRip[/url]
Формат: AVI
Видео: 624x480 (1.30:1), 25 fps, XviD build 73 ~1734 kbps avg, 0.23 bit/pixel
Аудио: 48 kHz, AC3 Dolby Digital, 2/0 (L,R) ch, ~192 kbps - дубляж
Аудио: 48 kHz, AC3 Dolby Digital, 2/0 (L,R) ch, ~192 kbps - оригинал
Субтитры: отсутствуют

Подробные технические данные

ОбщееПолное имя : H:\The.Snow.White.1994.dvdrip_[745]_[teko].aviФормат : AVIФормат/Информация : Audio Video InterleaveРазмер файла : 744 МбайтПродолжительность : 48 м.Общий поток : 2133 Кбит/секПрограмма кодирования : VirtualDubMod 1.5.10.3 | www.virtualdub-fr.org || (build 2550/release)Библиотека кодирования : VirtualDubMod build 2550/release
ВидеоИдентификатор : 0Формат : MPEG-4 VisualПрофиль формата : Advanced Simple@L5Параметр BVOP формата : 2Параметр QPel формата : НетПараметр GMC формата : Без точки переходаПараметр матрицы формата : ВыборочнаяИдентификатор кодека : XVIDИдентификатор кодека/Подсказка : XviDПродолжительность : 48 м.Битрейт : 1735 Кбит/секШирина : 624 пикселяВысота : 480 пикселейСоотношение сторон : 4:3Частота кадров : 25,000 кадров/секЦветовое пространство : YUVСубдискретизация насыщенности : 4:2:0Битовая глубина : 8 битТип развёртки : ПрогрессивнаяМетод сжатия : С потерямиБит/(Пиксели*Кадры) : 0.232Размер потока : 605 Мбайт (81%)Библиотека кодирования : XviD 73
Аудио #1Идентификатор : 1Формат : AC-3Формат/Информация : Audio Coding 3Расширение режима : CM (complete main)Параметр Endianness формата : BigИдентификатор кодека : 2000Продолжительность : 48 м.Вид битрейта : ПостоянныйБитрейт : 192 Кбит/секКаналы : 2 каналаРасположение каналов : Front: L RЧастота : 48,0 КГцБитовая глубина : 16 битМетод сжатия : С потерямиРазмер потока : 67,0 Мбайт (9%)Выравнивание : Разделение по промежуткамПродолжительность промежутка : 40 мс. (1,00 видеокадр)Время предзагрузки промежутка : 500 мс.
Аудио #2Идентификатор : 2Формат : AC-3Формат/Информация : Audio Coding 3Расширение режима : CM (complete main)Параметр Endianness формата : BigИдентификатор кодека : 2000Продолжительность : 48 м.Вид битрейта : ПостоянныйБитрейт : 192 Кбит/секКаналы : 2 каналаРасположение каналов : Front: L RЧастота : 48,0 КГцБитовая глубина : 16 битМетод сжатия : С потерямиРазмер потока : 67,0 Мбайт (9%)Выравнивание : Разделение по промежуткамПродолжительность промежутка : 40 мс. (1,00 видеокадр)Время предзагрузки промежутка : 500 мс.

Скриншоты

Релиз группы:
[url=viewtopic.php?t=1677970] [/url]
--

_________________
Показать сообщения:    

Текущее время: Сегодня 15:22

Часовой пояс: GMT



Вы не можете начинать темы
Вы не можете отвечать на сообщения
Вы не можете редактировать свои сообщения
Вы не можете удалять свои сообщения
Вы не можете голосовать в опросах
Вы не можете прикреплять файлы к сообщениям
Вы не можете скачивать файлы
Наши партнеры: интернет магазин Ивановского трикотажа textilla.ru