Ивановский Торрент трекер
Яндекс.Погода
 

[Цитировать]
VitalIX

Белоснежка и охотник / Snow White and the Huntsman Год выпуска: 2012
Страна: США
Жанр: фэнтези, боевик, драма, приключения
Продолжительность: 02:07:15
Перевод: Профессиональный (полное дублирование) [Лицензия]-Режиссер: Руперт Сандерс-В ролях:
Кристен Стюарт, Крис Хемсворт, Шарлиз Терон, Сэм Клафлин, Сэм Спруэлл, Иэн МакШейн, Боб Хоскинс, Рэй Уинстон, Ник Фрост, Эдди Марсан-Описание:
Тьма приближается. Она прячется в лесах, спускается с гор, застилает небо. Никто не укроется от магического зеркала Королевы, живущей в неприступном замке, охраняемом бесчисленной армией. Но над Белоснежкой злые чары не властны. И тогда Королева отправляет Охотника, чтобы он принес ей сердце соперницы. Но очарованный Белоснежкой, он встает на ее сторону. Грядет великая битва. Лишь одна будет править.
Доп. информация: Рип от: EbP

IMDB рейтинг : 6.4/10 (78,080 голосов)
Кинопоиск рейтинг : 6.197 (15,022 голосов)
Качество: BDRip[720p]
Формат: MKV
Видео: MPEG4 Video (H264) | 1280x544 | 23.976fps
Аудио: AC3 | 48000Hz | 6ch

MI

General
Unique ID : 234905594417475708997132086414971074541 (0xB0B92BFDA88CA299BD12C96DC1F577ED)
Complete name : Belosnejka.i.ohotnik.2012.D.BDRip.720p.IRONCLUB.mkv
Format : Matroska
Format version : Version 2
File size : 5.92 GiB
Duration : 2h 7mn
Overall bit rate : 6 656 Kbps
Movie name : IRONCLUB
Encoded date : UTC 2012-09-20 15:03:04
Writing application : mkvmerge v4.9.1 ('Ich will') сборка от Jul 11 2011 23:53:15
Writing library : libebml v1.2.1 + libmatroska v1.1.1
Video
ID : 1
Format : AVC
Format/Info : Advanced Video Codec
Format profile : High@L4.1
Format settings, CABAC : Yes
Format settings, ReFrames : 12 frames
Codec ID : V_MPEG4/ISO/AVC
Duration : 2h 7mn
Bit rate : 5 632 Kbps
Width : 1 280 pixels
Height : 544 pixels
Display aspect ratio : 2.35:1
Frame rate : 23.976 fps
Color space : YUV
Chroma subsampling : 4:2:0
Bit depth : 8 bits
Scan type : Progressive
Bits/(Pixel*Frame) : 0.337
Stream size : 4.89 GiB (83%)
Title : Snow.White.and.the.Huntsman.2012.720p.BluRay.DD5.1.x264-EbP
Writing library : x264 core 125 r2208kMod d9d2288
Encoding settings : cabac=1 / ref=12 / deblock=1:-3:-3 / analyse=0x3:0x113 / me=tesa / subme=11 / psy=1 / fade_compensate=0.00 / psy_rd=0.80:0.00 / mixed_ref=1 / me_range=32 / chroma_me=1 / trellis=2 / 8x8dct=1 / cqm=0 / deadzone=21,11 / fast_pskip=0 / chroma_qp_offset=-2 / threads=12 / lookahead_threads=2 / sliced_threads=0 / nr=0 / decimate=0 / interlaced=0 / bluray_compat=0 / constrained_intra=0 / bframes=7 / b_pyramid=2 / b_adapt=2 / b_bias=0 / direct=3 / weightb=1 / open_gop=0 / weightp=2 / keyint=250 / keyint_min=23 / scenecut=40 / intra_refresh=0 / rc=2pass / mbtree=0 / bitrate=5632 / ratetol=1.0 / qcomp=0.60 / qpmin=0 / qpmax=69 / qpstep=4 / cplxblur=20.0 / qblur=0.5 / ip_ratio=1.40 / pb_ratio=1.20 / aq=3:0.90
Language : English
Default : Yes
Forced : Yes
Color primaries : BT.709-5, BT.1361, IEC 61966-2-4, SMPTE RP177
Matrix coefficients : BT.709-5, BT.1361, IEC 61966-2-4 709, SMPTE RP177
Audio #1
ID : 2
Format : AC-3
Format/Info : Audio Coding 3
Mode extension : CM (complete main)
Format settings, Endianness : Big
Codec ID : A_AC3
Duration : 2h 7mn
Bit rate mode : Constant
Bit rate : 384 Kbps
Channel(s) : 6 channels
Channel positions : Front: L C R, Side: L R, LFE
Sampling rate : 48.0 KHz
Bit depth : 16 bits
Compression mode : Lossy
Stream size : 350 MiB (6%)
Title : DD 5.1 @ 384 kbps - Dub, R5
Language : Russian
Default : Yes
Forced : Yes
Audio #2
ID : 3
Format : AC-3
Format/Info : Audio Coding 3
Mode extension : CM (complete main)
Format settings, Endianness : Big
Codec ID : A_AC3
Duration : 2h 7mn
Bit rate mode : Constant
Bit rate : 640 Kbps
Channel(s) : 6 channels
Channel positions : Front: L C R, Side: L R, LFE
Sampling rate : 48.0 KHz
Bit depth : 16 bits
Compression mode : Lossy
Stream size : 583 MiB (10%)
Title : DD 5.1 @ 640 kbps
Language : English
Default : No
Forced : No

Скриншоты


_________________
Подпись отключена за нарушение правил форума
Показать сообщения:    

Текущее время: 19-Окт 08:14

Часовой пояс: UTC - 1


Вы не можете начинать темы
Вы не можете отвечать на сообщения
Вы не можете редактировать свои сообщения
Вы не можете удалять свои сообщения
Вы не можете голосовать в опросах
Вы не можете прикреплять файлы к сообщениям
Вы не можете скачивать файлы

!ВНИМАНИЕ!
Сайт не предоставляет электронные версии произведений, а занимается лишь коллекционированием и каталогизацией ссылок, присылаемых и публикуемых на форуме нашими читателями. Если вы являетесь правообладателем какого-либо представленного материала и не желаете, чтобы ссылка на него находилась в нашем каталоге, свяжитесь с нами, и мы незамедлительно удалим ее. Файлы для обмена на трекере предоставлены пользователями сайта, и администрация не несет ответственности за их содержание. Просьба не заливать файлы, защищенные авторскими правами, а также файлы нелегального содержания!