Важное объявление!
У Нас Все раздачи мультитрекерные, при нуле пиров в релизах, можете смело вставать на закачку!
 
Автор Сообщение

HUNTER

Стаж:
4 года 9 месяцев
Сообщений:
65033

Репутация: 101

[+] [-]
Вне форума [Профиль] [ЛС]

Белоснежка и Охотник 2 / The Huntsman: Winter's War-
Год выпуска: 2016
Выпущено: США
Жанр: фэнтези, боевик, драма, приключения
Продолжительность: 02:00:10
Перевод: Профессиональный (полное дублирование) CEE
Оригинальная звуковая дорожка: English
Субтитры: Russian (Blu-ray EUR), Ukrainian (Blu-ray EUR), Russian (Blu-ray EUR, Commentary), English, English (SDH), English (Commentary)-Режиссер: Седрик Николя-Троян / Cedric Nicolas-Troyan
В ролях: Крис Хемсворт, Шарлиз Терон, Джессика Честейн, Эмили Блант, Ник Фрост, Роб Брайдон, Шеридан Смит, Александра Роуч, Сопе Дирису, Сэм Хэзелдайн
О фильме: Когда любовь уходит, сердце прекрасной девы обращается в лед. И даже сотни королевств не смогут сдержать поступь ее несметного воинства. Лишь Охотник не ведает страха. Сквозь проклятый лес он идет навстречу своей судьбе.
HR!
Релиз:
Тип релиза: BDRip 1080p
Формат: MKV
Видео: 1920x804 at 23.976 fps, x264@L4.1, crf, ~14.7 Mbps avg
Аудио #01: Russian: 48 kHz, DTS, 3/2 (L,C,R,l,r) + LFE ch, ~768.00 kbps avg |Дубляж, Blu-ray EUR|
Аудио #02: English: 48 kHz, DTS, 3/2 (L,C,R,l,r) + LFE ch, ~1536.00 kbps avg
Аудио #03: English: 48 kHz, DTS Headphone:X, 2/0 (L,R) ch, ~384.00 kbps avg
Аудио #04: English: 48 kHz, AC3, 2/0 (L,R) ch, ~192.00 kbps avg |Feature Commentary by director Cedric Nicolas-Troyan|
Семпл-

Source vs Encode




-

mInfo

Формат : Matroska
Версия формата : Version 4 / Version 2
Размер файла : 14,7 Гбайт
Продолжительность : 2 ч. 0 м.
Общий поток : 17,6 Мбит/сек
Название фильма : The Huntsman: Winter's War (2016) [Extended Cut] - Release for HDCLUB
Дата кодирования : UTC 2016-08-08 02:40:23
Программа кодирования : mkvmerge v7.0.0 ('Where We Going') 32bit built on Jun 9 2014 15:08:34
Библиотека кодирования : libebml v1.3.0 + libmatroska v1.4.1
DURATION : 01:51:16.044000000
NUMBER_OF_FRAMES : 1751
NUMBER_OF_BYTES : 79891
_STATISTICS_WRITING_APP : mkvmerge v7.0.0 ('Where We Going') 32bit built on Jun 9 2014 15:08:34
_STATISTICS_WRITING_DATE_UTC : 2016-08-08 02:40:23
_STATISTICS_TAGS : BPS DURATION NUMBER_OF_FRAMES NUMBER_OF_BYTES
Видео
Идентификатор : 1
Формат : AVC
Формат/Информация : Advanced Video Codec
Профиль формата : High@L4.1
Параметр CABAC формата : Да
Параметр ReFrames формата : 5 кадров
Идентификатор кодека : V_MPEG4/ISO/AVC
Продолжительность : 2 ч. 0 м.
Битрейт : 14,4 Мбит/сек
Ширина : 1920 пикселей
Высота : 804 пикселя
Соотношение сторон : 2,40:1
Режим частоты кадров : Постоянный
Частота кадров : 23,976 кадра/сек
Цветовое пространство : YUV
Субдискретизация насыщенности : 4:2:0
Битовая глубина : 8 бит
Тип развёртки : Прогрессивная
Бит/(Пиксели*Кадры) : 0.388
Размер потока : 12,1 Гбайт (82%)
Заголовок : The Huntsman: Winter's War (2016) [Extended Cut] - Release for HDCLUB
Библиотека кодирования : x264 core 148 r2705+54 9f484c1 t_mod_Custom [8-bit@all X86]
Настройки программы : cabac=1 / ref=5 / deblock=1:-3:-3 / analyse=0x3:0x133 / me=umh / subme=11 / psy=1 / fade_compensate=0.00 / psy_rd=1.00:0.00 / mixed_ref=1 / me_range=64 / chroma_me=1 / trellis=2 / 8x8dct=1 / cqm=0 / deadzone=21,11 / fast_pskip=0 / chroma_qp_offset=-2 / threads=25 / lookahead_threads=4 / sliced_threads=0 / nr=0 / decimate=0 / interlaced=0 / bluray_compat=0 / constrained_intra=0 / fgo=0 / bframes=8 / b_pyramid=2 / b_adapt=2 / b_bias=0 / direct=3 / weightb=1 / open_gop=0 / weightp=2 / keyint=250 / keyint_min=23 / scenecut=40 / intra_refresh=0 / rc_lookahead=120 / rc=crf / mbtree=0 / crf=16.4000 / qcomp=0.65 / qpmin=0:0:0 / qpmax=69:69:69 / qpstep=4 / vbv_maxrate=62500 / vbv_bufsize=50000 / crf_max=0.0 / nal_hrd=none / filler=0 / ip_ratio=1.30 / pb_ratio=1.20 / aq=3:0.85 / aq-sensitivity=10.00 / aq-factor=1.00:1.00:1.00 / aq2=0 / aq3=0
Язык : English
Default : Да
Forced : Нет
DURATION : 02:00:10.328000000
NUMBER_OF_FRAMES : 172875
NUMBER_OF_BYTES : 13253310407
_STATISTICS_WRITING_APP : mkvmerge v7.0.0 ('Where We Going') 32bit built on Jun 9 2014 15:08:34
_STATISTICS_WRITING_DATE_UTC : 2016-08-08 02:40:23
_STATISTICS_TAGS : BPS DURATION NUMBER_OF_FRAMES NUMBER_OF_BYTES
Аудио #1
Идентификатор : 2
Формат : DTS
Формат/Информация : Digital Theater Systems
Режим : 16
Параметр Endianness формата : Big
Идентификатор кодека : A_DTS
Продолжительность : 2 ч. 0 м.
Вид битрейта : Постоянный
Битрейт : 768 Кбит/сек
Каналы : 6 каналов
Расположение каналов : Front: L C R, Side: L R, LFE
Частота : 48,0 КГц
Битовая глубина : 24 бит
Метод сжатия : С потерями
Размер потока : 660 Мбайт (4%)
Заголовок : DTS 5.1 @ 768 kbps - DUB, Blu-ray EUR
Язык : Russian
Default : Да
Forced : Нет
Аудио #2
Идентификатор : 3
Формат : DTS
Формат/Информация : Digital Theater Systems
Режим : 16
Параметр Endianness формата : Big
Идентификатор кодека : A_DTS
Продолжительность : 2 ч. 0 м.
Вид битрейта : Постоянный
Битрейт : 1509 Кбит/сек
Каналы : 6 каналов
Расположение каналов : Front: L C R, Side: L R, LFE
Частота : 48,0 КГц
Битовая глубина : 24 бит
Метод сжатия : С потерями
Размер потока : 1,27 Гбайт (9%)
Заголовок : DTS 5.1 @ 1536 kbps
Язык : English
Default : Нет
Forced : Нет
Аудио #3
Идентификатор : 4
Формат : DTS
Формат/Информация : Digital Theater Systems
Режим : 16
Параметр Endianness формата : Big
Идентификатор кодека : A_DTS
Продолжительность : 2 ч. 0 м.
Вид битрейта : Постоянный
Битрейт : 384 Кбит/сек
Каналы : 2 канала
Расположение каналов : Front: L R
Частота : 48,0 КГц
Битовая глубина : 24 бит
Метод сжатия : С потерями
Размер потока : 330 Мбайт (2%)
Заголовок : DTS Headphone:X 2.0 @ 384 kbps
Язык : English
Default : Нет
Forced : Нет
Аудио #4
Идентификатор : 5
Формат : AC-3
Формат/Информация : Audio Coding 3
Профиль формата : Dolby Digital
Расширение режима : CM (complete main)
Параметр Endianness формата : Big
Идентификатор кодека : A_AC3
Продолжительность : 2 ч. 0 м.
Вид битрейта : Постоянный
Битрейт : 192 Кбит/сек
Каналы : 2 канала
Расположение каналов : Front: L R
Частота : 48,0 КГц
Битовая глубина : 16 бит
Метод сжатия : С потерями
Размер потока : 165 Мбайт (1%)
Заголовок : AC3 2.0 @ 192 kbps - Feature Commentary by director Cedric Nicolas-Troyan
Язык : English
Default : Нет
Forced : Нет
Текст #1
Идентификатор : 6
Формат : UTF-8
Идентификатор кодека : S_TEXT/UTF8
Идентификатор кодека/Информация : UTF-8 Plain Text
Заголовок : Blu-ray EUR
Язык : Russian
Default : Нет
Forced : Нет
Текст #2
Идентификатор : 7
Формат : UTF-8
Идентификатор кодека : S_TEXT/UTF8
Идентификатор кодека/Информация : UTF-8 Plain Text
Заголовок : Blu-ray EUR
Язык : Ukrainian
Default : Нет
Forced : Нет
Текст #3
Идентификатор : 8
Формат : UTF-8
Идентификатор кодека : S_TEXT/UTF8
Идентификатор кодека/Информация : UTF-8 Plain Text
Заголовок : Blu-ray EUR, Commentary
Язык : Russian
Default : Нет
Forced : Нет
Текст #4
Идентификатор : 9
Формат : UTF-8
Идентификатор кодека : S_TEXT/UTF8
Идентификатор кодека/Информация : UTF-8 Plain Text
Язык : English
Default : Нет
Forced : Нет
Текст #5
Идентификатор : 10
Формат : UTF-8
Идентификатор кодека : S_TEXT/UTF8
Идентификатор кодека/Информация : UTF-8 Plain Text
Заголовок : SDH
Язык : English
Default : Нет
Forced : Нет
Текст #6
Идентификатор : 11
Формат : UTF-8
Идентификатор кодека : S_TEXT/UTF8
Идентификатор кодека/Информация : UTF-8 Plain Text
Заголовок : Commentary
Язык : English
Default : Нет
Forced : Нет
Меню
00:00:00.000 : en:00:00:00.000
00:06:26.428 : en:00:06:26.428
00:09:26.858 : en:00:09:26.858
00:15:03.194 : en:00:15:03.194
00:21:33.501 : en:00:21:33.501
00:30:17.858 : en:00:30:17.858
00:36:08.166 : en:00:36:08.166
00:40:55.661 : en:00:40:55.661
00:46:56.439 : en:00:46:56.439
00:52:05.748 : en:00:52:05.748
00:59:35.530 : en:00:59:35.530
01:04:23.943 : en:01:04:23.943
01:11:16.689 : en:01:11:16.689
01:15:19.223 : en:01:15:19.223
01:22:42.833 : en:01:22:42.833
01:28:15.206 : en:01:28:15.206
01:33:58.007 : en:01:33:58.007
01:39:21.956 : en:01:39:21.956
01:48:13.904 : en:01:48:13.904
01:50:19.571 : en:01:50:19.571
-

_________________
Показать сообщения:    

Текущее время: Сегодня 09:31

Часовой пояс: GMT



Вы не можете начинать темы
Вы не можете отвечать на сообщения
Вы не можете редактировать свои сообщения
Вы не можете удалять свои сообщения
Вы не можете голосовать в опросах
Вы не можете прикреплять файлы к сообщениям
Вы не можете скачивать файлы