Ивановский Торрент трекер
Яндекс.Погода
 

[Цитировать]
HUNTER

Белоснежка и Охотник 2 / The Huntsman: Winter's War Theatrical & Extended Cut
Страна: США
Жанр: фэнтези, боевик, драма, приключения
Год выпуска: 2016
Продолжительность: 01:53:57+02:00:10-Перевод: Профессиональный (дублированный)
Cубтитры: Английский, Русский, Эстонский, Немецкий, Итальянский, Латышский, Литовский, Польский, Турецкий, Украинский
Оригинальная аудиодорожка: английский-Режиссер: Седрик Николя-Троян / Cedric Nicolas-Troyan-В ролях: Крис Хемсворт, Шарлиз Терон, Джессика Честейн, Эмили Блант, Ник Фрост, Роб Брайдон, Шеридан Смит, Александра Роуч, Сопе Дирису, Сэм Хэзелдайн
Описание: Когда любовь уходит, сердце прекрасной девы обращается в лед. И даже сотни королевств не смогут сдержать поступь ее несметного воинства. Лишь Охотник не ведает страха. Сквозь проклятый лес он идет навстречу своей судьбе.-Тип релиза: Blu-ray disc
Контейнер: BDMV-Видео: MPEG-4 AVC Video 25492 kbps 1080p / 23,976 fps / 16:9 / High Profile 4.1-Аудио 1: DTS-HD Master Audio English 3859 kbps 7.1 / 48 kHz / 3859 kbps / 24-bit (DTS Core: 5.1 / 48 kHz / 1509 kbps / 24-bit)
Аудио 2: DTS-HD High-Res Audio German 2046 kbps 7.1 / 48 kHz / 2046 kbps / 24-bit (DTS Core: 5.1 / 48 kHz / 1509 kbps / 24-bit)
Аудио 3: DTS-HD High-Res Audio Italian 2046 kbps 7.1 / 48 kHz / 2046 kbps / 24-bit (DTS Core: 5.1 / 48 kHz / 1509 kbps / 24-bit)
Аудио 4: DTS Audio Polish 768 kbps 5.1 / 48 kHz / 768 kbps / 24-bit
Аудио 5: DTS Audio Russian 768 kbps 5.1 / 48 kHz / 768 kbps / 24-bit
Аудио 6: DTS Audio Turkish 768 kbps 5.1 / 48 kHz / 768 kbps / 24-bit
Аудио 7: DTS Audio English 384 kbps 2.0 / 48 kHz / 384 kbps / 24-bit
Аудио 8: Dolby Digital Audio English 192 kbps 2.0 / 48 kHz / 192 kbps / DN -4dB / Dolby Surround
Аудио 9: Dolby Digital Audio English 192 kbps 2.0 / 48 kHz / 192 kbps / DN -4dB / Dolby Surround

На диске

• Удалённые эпизоды с комментариями режисёра Седрика Николя-Трояна
• Смешные моменты
• Зимние виды: рассказ о сьёмках фильма "Белоснежка и Охотник 2"

BDInfo

DISC INFO:
Disc Title: Huntsman Winter's War
Disc Size: 48 440 185 186 bytes
Protection: AACS
BD-Java: Yes
BDInfo: 0.5.8
PLAYLIST REPORT:
Name: 00801.MPLS
Length: 2:00:10.286 (h:m:s.ms)
Size: 35 835 783 168 bytes
Total Bitrate: 39,76 Mbps
(*) Indicates included stream hidden by this playlist.
VIDEO:
Codec Bitrate Description
----- ------- -----------
MPEG-4 AVC Video 25492 kbps 1080p / 23,976 fps / 16:9 / High Profile 4.1
AUDIO:
Codec Language Bitrate Description
----- -------- ------- -----------
DTS-HD Master Audio English 3859 kbps 7.1 / 48 kHz / 3859 kbps / 24-bit (DTS Core: 5.1 / 48 kHz / 1509 kbps / 24-bit)
DTS-HD High-Res Audio German 2046 kbps 7.1 / 48 kHz / 2046 kbps / 24-bit (DTS Core: 5.1 / 48 kHz / 1509 kbps / 24-bit)
DTS-HD High-Res Audio Italian 2046 kbps 7.1 / 48 kHz / 2046 kbps / 24-bit (DTS Core: 5.1 / 48 kHz / 1509 kbps / 24-bit)
DTS Audio Polish 768 kbps 5.1 / 48 kHz / 768 kbps / 24-bit
DTS Audio Russian 768 kbps 5.1 / 48 kHz / 768 kbps / 24-bit
DTS Audio Turkish 768 kbps 5.1 / 48 kHz / 768 kbps / 24-bit
DTS Audio English 384 kbps 2.0 / 48 kHz / 384 kbps / 24-bit
* Dolby Digital Audio English 192 kbps 2.0 / 48 kHz / 192 kbps / DN -4dB / Dolby Surround
Dolby Digital Audio English 192 kbps 2.0 / 48 kHz / 192 kbps / DN -4dB / Dolby Surround
SUBTITLES:
Codec Language Bitrate Description
----- -------- ------- -----------
Presentation Graphics English 25,621 kbps
* Presentation Graphics English 51,834 kbps
Presentation Graphics English 51,992 kbps
Presentation Graphics Estonian 19,279 kbps
Presentation Graphics German 23,256 kbps
* Presentation Graphics German 54,578 kbps
Presentation Graphics German 54,435 kbps
Presentation Graphics German 0,071 kbps
Presentation Graphics Italian 20,592 kbps
* Presentation Graphics Italian 50,975 kbps
Presentation Graphics Italian 50,676 kbps
Presentation Graphics Italian 0,093 kbps
Presentation Graphics Latvian 19,029 kbps
Presentation Graphics Lithuanian 21,527 kbps
Presentation Graphics Polish 19,538 kbps
Presentation Graphics Russian 21,150 kbps
* Presentation Graphics Russian 51,092 kbps
Presentation Graphics Russian 50,923 kbps
Presentation Graphics Russian 0,023 kbps
Presentation Graphics Turkish 20,980 kbps
Presentation Graphics Ukrainian 19,562 kbps
FILES:
Name Time In Length Size Total Bitrate
---- ------- ------ ---- -------------
00400.M2TS 0:00:00.000 0:26:32.048 7 872 897 024 39 561
00417.M2TS 0:26:32.048 0:05:04.762 1 518 151 680 39 851
00402.M2TS 0:31:36.811 0:04:21.761 1 308 794 880 40 000
00418.M2TS 0:35:58.573 0:00:57.682 284 368 896 39 439
00403.M2TS 0:36:56.255 0:03:59.405 1 185 687 552 39 621
00419.M2TS 0:40:55.661 0:01:51.861 556 216 320 39 779
00404.M2TS 0:42:47.523 0:09:41.455 2 901 141 504 39 916
00420.M2TS 0:52:28.979 0:02:26.855 726 964 224 39 602
00405.M2TS 0:54:55.834 0:37:46.180 11 274 369 024 39 800
00421.M2TS 1:32:42.014 0:02:32.735 757 524 480 39 678
00408.M2TS 1:35:14.750 0:24:14.995 7 255 855 104 39 895
00422.M2TS 1:59:29.745 0:00:40.540 193 812 480 38 246
PLAYLIST REPORT:
Name: 00800.MPLS
Length: 1:53:57.538 (h:m:s.ms)
Size: 33 982 789 632 bytes
Total Bitrate: 39,76 Mbps
(*) Indicates included stream hidden by this playlist.
VIDEO:
Codec Bitrate Description
----- ------- -----------
MPEG-4 AVC Video 25484 kbps 1080p / 23,976 fps / 16:9 / High Profile 4.1
AUDIO:
Codec Language Bitrate Description
----- -------- ------- -----------
DTS-HD Master Audio English 3869 kbps 7.1 / 48 kHz / 3869 kbps / 24-bit (DTS Core: 5.1 / 48 kHz / 1509 kbps / 24-bit)
DTS-HD High-Res Audio German 2046 kbps 7.1 / 48 kHz / 2046 kbps / 24-bit (DTS Core: 5.1 / 48 kHz / 1509 kbps / 24-bit)
DTS-HD High-Res Audio Italian 2046 kbps 7.1 / 48 kHz / 2046 kbps / 24-bit (DTS Core: 5.1 / 48 kHz / 1509 kbps / 24-bit)
DTS Audio Polish 768 kbps 5.1 / 48 kHz / 768 kbps / 24-bit
DTS Audio Russian 768 kbps 5.1 / 48 kHz / 768 kbps / 24-bit
DTS Audio Turkish 768 kbps 5.1 / 48 kHz / 768 kbps / 24-bit
DTS Audio English 384 kbps 2.0 / 48 kHz / 384 kbps / 24-bit
Dolby Digital Audio English 192 kbps 2.0 / 48 kHz / 192 kbps / DN -4dB / Dolby Surround
* Dolby Digital Audio English 192 kbps 2.0 / 48 kHz / 192 kbps / DN -4dB / Dolby Surround
SUBTITLES:
Codec Language Bitrate Description
----- -------- ------- -----------
Presentation Graphics English 25,555 kbps
Presentation Graphics English 51,641 kbps
* Presentation Graphics English 51,852 kbps
Presentation Graphics Estonian 19,153 kbps
Presentation Graphics German 23,166 kbps
Presentation Graphics German 54,364 kbps
* Presentation Graphics German 54,402 kbps
Presentation Graphics German 0,075 kbps
Presentation Graphics Italian 20,515 kbps
Presentation Graphics Italian 50,692 kbps
* Presentation Graphics Italian 50,750 kbps
Presentation Graphics Italian 0,098 kbps
Presentation Graphics Latvian 18,947 kbps
Presentation Graphics Lithuanian 21,468 kbps
Presentation Graphics Polish 19,569 kbps
Presentation Graphics Russian 21,167 kbps
Presentation Graphics Russian 51,001 kbps
* Presentation Graphics Russian 51,030 kbps
Presentation Graphics Russian 0,064 kbps
Presentation Graphics Turkish 20,927 kbps
Presentation Graphics Ukrainian 19,370 kbps
FILES:
Name Time In Length Size Total Bitrate
---- ------- ------ ---- -------------
00400.M2TS 0:00:00.000 0:26:32.048 7 872 897 024 39 561
00411.M2TS 0:26:32.048 0:01:31.341 452 517 888 39 633
00402.M2TS 0:28:03.390 0:04:21.761 1 308 794 880 40 000
00412.M2TS 0:32:25.151 0:00:26.609 132 243 456 39 758
00403.M2TS 0:32:51.761 0:03:59.405 1 185 687 552 39 621
00413.M2TS 0:36:51.167 0:01:17.869 388 128 768 39 875
00404.M2TS 0:38:09.036 0:09:41.455 2 901 141 504 39 916
00414.M2TS 0:47:50.492 0:02:07.627 631 855 104 39 606
00405.M2TS 0:49:58.120 0:37:46.180 11 274 369 024 39 800
00415.M2TS 1:27:44.300 0:01:37.305 486 776 832 40 020
00408.M2TS 1:29:21.606 0:24:14.995 7 255 855 104 39 895
00416.M2TS 1:53:36.601 0:00:20.937 92 522 496 35 352

Скриншоты

Показать сообщения:    

Текущее время: 24-Сен 18:14

Часовой пояс: UTC - 1


Вы не можете начинать темы
Вы не можете отвечать на сообщения
Вы не можете редактировать свои сообщения
Вы не можете удалять свои сообщения
Вы не можете голосовать в опросах
Вы не можете прикреплять файлы к сообщениям
Вы не можете скачивать файлы

!ВНИМАНИЕ!
Сайт не предоставляет электронные версии произведений, а занимается лишь коллекционированием и каталогизацией ссылок, присылаемых и публикуемых на форуме нашими читателями. Если вы являетесь правообладателем какого-либо представленного материала и не желаете, чтобы ссылка на него находилась в нашем каталоге, свяжитесь с нами, и мы незамедлительно удалим ее. Файлы для обмена на трекере предоставлены пользователями сайта, и администрация не несет ответственности за их содержание. Просьба не заливать файлы, защищенные авторскими правами, а также файлы нелегального содержания!