Ивановский Торрент трекер
Яндекс.Погода
 

[Цитировать]
HUNTER

-Белоснежка и Охотник 2
The Huntsman: Winter's War

(Театральная версия / Theatrical Cut)
- Год выпуска: 2016
Страна: США
Жанр: Фэнтези, Боевик, Драма, Приключения
Продолжительность: 01:53:58
Перевод: Профессиональный дублированный - лицензия
Режиссер: Седрик Николя-Троян / Cedric Nicolas-Troyan-Роли исполняли (дублировали):

The Huntsman / Eric - Крис Хемсворт (Иван Жарков)
Ravenna - Шарлиз Терон (Алёна Ивченко)
Sara - Джессика Честейн (Мария Иващенко)
Queen Freya - Эмили Блант (Наталья Фищук)
Nion - Ник Фрост (Алексей Войтюк)
Gryff - Роб Брайдон (Станислав Тикунов)
Mrs. Bromwyn - Шеридан Смит (Полина Щербакова)
Doreena - Александра Роуч (Анастасия Жаркова)
Tull - Сопе Дирису (Михаил Данилюк)
Leifr - Сэм Хэзелдайн (Сергей Чихачев)
William - Сэм Клафлин (Даниил Эльдаров)
Pippa - Софи Куксон (Екатерина Виноградова)
-Описание: Когда любовь уходит, сердце прекрасной девы обращается в лед. И даже сотни королевств не смогут сдержать поступь ее несметного воинства. Лишь Охотник не ведает страха. Сквозь проклятый лес он идет навстречу своей судьбе.

Знаете ли вы, что...

  • Некоторые эпизоды фильма, показанные в трейлере, сняты в городке Уэлс в графстве Сомерсет.
  • В трейлере сказано, что продюсер Джо Рот создал «Малефисенту» (2014) и «Алису в стране чудес» (2010), фильмы студии «Disney», в то время как «Белоснежка и охотник 2» — это проект студии «Universal Pictures». Всё это — художественные фильмы по мотивам сказок.
  • Надпись рунами, которая на мгновение появляется в трейлере, означает «Я вижу».
  • В первом трейлере к фильму звучит композиция «Castle» певицы Halsey.
  • Фрейя — в германо-скандинавской мифологии богиня любви, волшебства и смерти. Согласно мифам, она вышла за Ода, который однажды пропал без вести. Фрейя искала его по всему свету, в каждой стране беря себе новое имя, но так и не нашла любимого. Богиня стала плакать слезами, которые превращались в золото. Её собственная потеря расположила богиню ко всем влюблённым смертным.
  • Исполнитель главной роли Крис Хемсворт получил известность в роли скандинавского бога Тора в фильмах кинематографической вселенной «Marvel». Персонаж актрисы Эмили Блант носит имя Фрейя (ещё одно имя из скандинавского пантеона).
  • Шорт-лист режиссёров для съёмок фильма, составленный компанией «Universal Pictures», включал следующие имена: Фрэнк Дарабонт, Гэвин О`Коннор и Андрес Мускетти. Контракт был подписан с Дарабонтом, однако фильм в конце концов снял Седрик Николя-Троян, а Дарабонт просто приложил руку к работе над сценарием. На съёмках фильма «Белоснежка и охотник» (2012) Николя-Троян работал над спецэффектами и был режиссёром второго плана.
  • Съёмки фильма проходили, в частности, в деревушке Френшем в Великобритании, там же, где снимался и первый фильм.
    Осторожно! Следующий факт содержит спойлер!
Персонаж воительницы Сары в исполнении Джессики Честейн упоминается в фильме «Белоснежка и охотник», где её называют покойной женой охотника.Премьера: 29 марта 2016 (14 апреля 2016)
Релиз на Blu-Ray (DVD) (Россия): 15 августа 2016
Бюджет: $115 000 000
Кассовые сборы: $164 602 163

.
-Качество: BDRip (by Ash61)
Контейнер: MKV
Формат 3D: Half OverUnder / Вертикальная анаморфная стереопара
Порядок ракурсов: левый ракурс первый-Видео: AVC / 1920х1080p / 23,976 fps / 10.4 Mbps
Аудио:
#1 - Русский / AC3 / 48 KHz / 5.1 ch / 640 Kbps (Дубляж - BD Eur)
#2 - Английский / AC3 / 48 KHz / 5.1 ch / 640 Kbps (Original - BD 3D)
Субтитры (SRT):
Вшитые (softsub):
#1 - Русские Форсированные (включены по умолчанию)
#2 - Русские Полные
#3 - Украинские Полные
#4 - English Full
#5 - English SDH
Внешние (UTF-8):
#1 - Русские Форсированные (включены по умолчанию)

MediaInfo

General
Unique ID : 194511081293973664260140661311365241774 (0x925578BAA42CE606AC2E357DCF20DBAE)
Complete name : E:\TheHuntsman2(2016)3D-HalfOU(Ash61)\TheHuntsman2(2016)3D-HalfOU(Ash61).mkv
Format : Matroska
Format version : Version 2
File size : 9.50 GiB
Duration : 1h 53mn
Overall bit rate : 11.9 Mbps
Movie name : Белоснежка и Охотник 2 / The Huntsman: Winter's War (2016) в 3Д
Encoded date : UTC 2016-08-14 14:21:59
Writing application : mkvmerge v5.8.0 ('No Sleep / Pillow') built on Sep 2 2012 15:37:04
Writing library : libebml v1.2.3 + libmatroska v1.3.0
Video
ID : 1
Format : AVC
Format/Info : Advanced Video Codec
Format profile : High@L4.1
Format settings, CABAC : Yes
Format settings, ReFrames : 4 frames
Codec ID : V_MPEG4/ISO/AVC
Duration : 1h 53mn
Bit rate : 10.4 Mbps
Width : 1 920 pixels
Height : 1 080 pixels
Display aspect ratio : 16:9
Frame rate mode : Constant
Frame rate : 23.976 fps
Color space : YUV
Chroma subsampling : 4:2:0
Bit depth : 8 bits
Scan type : Progressive
Bits/(Pixel*Frame) : 0.210
Stream size : 8.29 GiB (87%)
Title : BDRip by Ash61
Writing library : x264 core 146 r2538 121396c
Encoding settings : cabac=1 / ref=4 / deblock=1:-3:-3 / analyse=0x3:0x113 / me=umh / subme=10 / psy=1 / psy_rd=1.00:0.00 / mixed_ref=1 / me_range=32 / chroma_me=1 / trellis=2 / 8x8dct=1 / cqm=0 / deadzone=21,11 / fast_pskip=1 / chroma_qp_offset=-2 / threads=12 / lookahead_threads=3 / sliced_threads=0 / nr=0 / decimate=1 / interlaced=0 / bluray_compat=0 / constrained_intra=0 / bframes=14 / b_pyramid=2 / b_adapt=2 / b_bias=0 / direct=3 / weightb=1 / open_gop=0 / weightp=2 / keyint=250 / keyint_min=23 / scenecut=40 / intra_refresh=0 / rc_lookahead=60 / rc=crf / mbtree=1 / crf=15.5 / qcomp=0.70 / qpmin=0 / qpmax=69 / qpstep=4 / vbv_maxrate=40000 / vbv_bufsize=30000 / crf_max=0.0 / nal_hrd=none / filler=0 / frame-packing=4 / ip_ratio=1.40 / aq=1:0.70
Language : English
Default : Yes
Forced : No
Audio #1
ID : 2
Format : AC-3
Format/Info : Audio Coding 3
Mode extension : CM (complete main)
Format settings, Endianness : Big
Codec ID : A_AC3
Duration : 1h 53mn
Bit rate mode : Constant
Bit rate : 640 Kbps
Channel(s) : 6 channels
Channel positions : Front: L C R, Side: L R, LFE
Sampling rate : 48.0 KHz
Bit depth : 16 bits
Compression mode : Lossy
Stream size : 522 MiB (5%)
Title : Дубляж - BD Eur
Language : Russian
Default : Yes
Forced : No
Audio #2
ID : 3
Format : AC-3
Format/Info : Audio Coding 3
Mode extension : CM (complete main)
Format settings, Endianness : Big
Codec ID : A_AC3
Duration : 1h 53mn
Bit rate mode : Constant
Bit rate : 640 Kbps
Channel(s) : 6 channels
Channel positions : Front: L C R, Side: L R, LFE
Sampling rate : 48.0 KHz
Bit depth : 16 bits
Compression mode : Lossy
Stream size : 522 MiB (5%)
Title : Original - BD Eur
Language : English
Default : No
Forced : No
Text #1
ID : 4
Format : UTF-8
Codec ID : S_TEXT/UTF8
Codec ID/Info : UTF-8 Plain Text
Title : Форсированные
Language : Russian
Default : Yes
Forced : No
Text #2
ID : 5
Format : UTF-8
Codec ID : S_TEXT/UTF8
Codec ID/Info : UTF-8 Plain Text
Title : Полные
Language : Russian
Default : No
Forced : No
Text #3
ID : 6
Format : UTF-8
Codec ID : S_TEXT/UTF8
Codec ID/Info : UTF-8 Plain Text
Title : Полные
Language : Ukrainian
Default : No
Forced : No
Text #4
ID : 7
Format : UTF-8
Codec ID : S_TEXT/UTF8
Codec ID/Info : UTF-8 Plain Text
Title : Full
Language : English
Default : No
Forced : No
Text #5
ID : 8
Format : UTF-8
Codec ID : S_TEXT/UTF8
Codec ID/Info : UTF-8 Plain Text
Title : SDH
Language : English
Default : No
Forced : No
Menu
00:00:00.000 : :1
00:06:26.428 : :2
00:09:26.858 : :3
00:15:03.194 : :4
00:21:33.501 : :5
00:26:52.236 : :6
00:32:34.744 : :7
00:36:51.167 : :8
00:42:17.952 : :9
00:47:27.261 : :10
00:54:37.816 : :11
00:59:26.229 : :12
01:06:18.975 : :13
01:10:21.509 : :14
01:17:45.119 : :15
01:23:17.492 : :16
01:28:06.865 : :17
01:33:28.812 : :18
01:42:20.760 : :19
01:44:26.427 : :20

Для оценки 3Д - Анимированные скрины















Показать сообщения:    

Текущее время: 22-Сен 12:39

Часовой пояс: UTC - 1


Вы не можете начинать темы
Вы не можете отвечать на сообщения
Вы не можете редактировать свои сообщения
Вы не можете удалять свои сообщения
Вы не можете голосовать в опросах
Вы не можете прикреплять файлы к сообщениям
Вы не можете скачивать файлы

!ВНИМАНИЕ!
Сайт не предоставляет электронные версии произведений, а занимается лишь коллекционированием и каталогизацией ссылок, присылаемых и публикуемых на форуме нашими читателями. Если вы являетесь правообладателем какого-либо представленного материала и не желаете, чтобы ссылка на него находилась в нашем каталоге, свяжитесь с нами, и мы незамедлительно удалим ее. Файлы для обмена на трекере предоставлены пользователями сайта, и администрация не несет ответственности за их содержание. Просьба не заливать файлы, защищенные авторскими правами, а также файлы нелегального содержания!