Ивановский Торрент трекер
Яндекс.Погода
 

[Цитировать]
димитри37

Белое солнце пустыни
Жанр: Истерн
Год выпуска: 1970
Продолжительность: 1:20:06


Режиссёр: Владимир Мотыль
В ролях:
Анатолий Кузнецов - красноармеец Фёдор Иванович Сухов
Николай Годовиков - красноармеец Петруха
Спартак Мишулин - Саид
Павел Луспекаев - начальник бывшей царской таможни Павел Артемьевич Верещагин
Раиса Куркина - жена Верещагина Настасья
Галина Лучай - жена Сухова Катерина Матвеевна
Кахи Кавсадзе - Чёрный Абдулла (роль озвучивал актёр Михаил Волков)
Муса Дудаев - Рахимов
Николай Бадьев - Лебедев
Владимир Кадочников - подпоручик Семён
Татьяна Федотова - Гюльчатай, младшая жена Абдуллы (роль озвучивала актриса Надежда Румянцева)
Описание: Один из самых любимых фильмов нескольких поколений зрителей повествует о приключениях красноармейца Фёдора Сухова, которому поручили сопроводить в Педжент "бесхозный" гарем басмача Абдуллы. Ему, бойцу Петрухе, таможеннику Верещагину и спасенному от верной гибели Саиду приходится вступить в бой со всей многочисленной бандой Абдуллы...
Качество видео: DVDRip-AVC
Формат видео: MKV
Видео: x264 (High@L4.1); 716x536 (4:3) 25.000 fps; 2199 Kbps
Аудио: Dolby Digital AC-3; 16 bits 48 Khz; 6ch 448 Kbps; CBR

Сравнение

Сравнение с источником:
http://screenshotcomparison.com/comparison/212
Сравнение с раздачей:
http://rutracker.org/forum/viewtopic.php?t=3852950
http://screenshotcomparison.com/comparison/214

Скриншоты

Исходник

MediaInfo

General
Unique ID : 226015047368797537162762517427601704899 (0xAA08EA2DC653833B80F0EA62DF2687C3)
Complete name : Белое солнце пустыни.1970.mkv
Format : Matroska
Format version : Version 2
File size : 1.48 GiB
Duration : 1h 20mn
Overall bit rate : 2 648 Kbps
Encoded date : UTC 2012-03-17 19:32:53
Writing application : mkvmerge v5.4.0 ('Piper') built on Mar 10 2012 13:34:39
Writing library : libebml v1.2.3 + libmatroska v1.3.0
Video
ID : 1
Format : AVC
Format/Info : Advanced Video Codec
Format profile : High@L4.1
Format settings, CABAC : Yes
Format settings, ReFrames : 15 frames
Codec ID : V_MPEG4/ISO/AVC
Duration : 1h 20mn
Bit rate : 2 199 Kbps
Width : 716 pixels
Height : 536 pixels
Display aspect ratio : 4:3
Frame rate : 25.000 fps
Color space : YUV
Chroma subsampling : 4:2:0
Bit depth : 8 bits
Scan type : Progressive
Bits/(Pixel*Frame) : 0.229
Stream size : 1.20 GiB (81%)
Title : Белое солнце пустыни.1970
Writing library : x264 core 119 r2106 07efeb4
Encoding settings : cabac=1 / ref=15 / deblock=1:-1:-1 / analyse=0x3:0x133 / me=umh / subme=10 / psy=1 / psy_rd=1.05:0.20 / mixed_ref=1 / me_range=32 / chroma_me=1 / trellis=2 / 8x8dct=1 / cqm=0 / deadzone=21,11 / fast_pskip=0 / chroma_qp_offset=-3 / threads=6 / sliced_threads=0 / nr=0 / decimate=0 / interlaced=0 / bluray_compat=0 / constrained_intra=0 / bframes=8 / b_pyramid=2 / b_adapt=2 / b_bias=0 / direct=3 / weightb=1 / open_gop=0 / weightp=2 / keyint=250 / keyint_min=25 / scenecut=40 / intra_refresh=0 / rc_lookahead=40 / rc=2pass / mbtree=0 / bitrate=2199 / ratetol=1.0 / qcomp=0.60 / qpmin=0 / qpmax=69 / qpstep=4 / cplxblur=20.0 / qblur=0.5 / vbv_maxrate=50000 / vbv_bufsize=62500 / nal_hrd=none / ip_ratio=1.40 / pb_ratio=1.30 / aq=1:1.00
Language : Russian
Default : Yes
Forced : No
Color primaries : BT.470-6 System B, BT.470-6 System G, BT.601-6 625, BT.1358 625, BT.1700 625 PAL, BT.1700 625 SECAM
Transfer characteristics : BT.470-6 System B, BT.470-6 System G
Matrix coefficients : BT.470-6 System B, BT.470-6 System G, BT.601-6 625, BT.1358 625, BT.1700 625 PAL, BT.1700 625 SECAM, IEC 61966-2-4 601
Audio
ID : 2
Format : AC-3
Format/Info : Audio Coding 3
Mode extension : CM (complete main)
Codec ID : A_AC3
Duration : 1h 20mn
Bit rate mode : Constant
Bit rate : 448 Kbps
Channel(s) : 6 channels
Channel positions : Front: L C R, Side: L R, LFE
Sampling rate : 48.0 KHz
Bit depth : 16 bits
Compression mode : Lossy
Stream size : 257 MiB (17%)
Title : Оригинал AC-3; 16 bits 48 Khz; 6ch 448 Kbps CBR
Language : Russian
Default : Yes
Forced : No

x264 log

...last pass...
x264.exe: --pass 2 --bitrate 2199 --preset medium --ref 15 --deblock -1:-1 --merange 32 --bframes 8 --direct auto --b-adapt 2 --trellis 2 --no-fast-pskip --no-dct-decimate --psy-rd 1.05:0.20 --vbv-maxrate 50000 --vbv-bufsize 62500 --partitions all --subme 10 --me umh --slow-firstpass --no-mbtree --colorprim bt470bg --transfer bt470bg --colormatrix bt470bg --stats "K:\Белое солнце пустыни.1970.log" --sar 1:1 --output "K:\Белое солнце пустыни.1970.mkv" "L:\Temp\0071.avs"
avs [info]: 716x536p 1:1 @ 25/1 fps (cfr)
x264 [info]: using SAR=1/1
x264 [info]: using cpu capabilities: MMX2 SSE2Fast SSSE3 FastShuffle SSE4.2
x264 [info]: profile High, level 4.1
x264 [info]: frame I:786 Avg QP:20.21 size: 48974
x264 [info]: frame P:24298 Avg QP:22.86 size: 18980
x264 [info]: frame B:95077 Avg QP:23.85 size: 8634
x264 [info]: consecutive B-frames: 1.0% 1.2% 5.6% 22.0% 16.0% 45.6% 5.7% 2.0% 1.1%
x264 [info]: mb I I16..4: 6.7% 80.5% 12.8%
x264 [info]: mb P I16..4: 0.7% 18.5% 1.2% P16..4: 47.5% 19.6% 11.1% 0.5% 0.1% skip: 1.0%
x264 [info]: mb B I16..4: 0.0% 2.1% 0.1% B16..8: 40.5% 11.5% 2.9% direct:14.1% skip:28.8% L0:40.1% L1:45.1% BI:14.8%
x264 [info]: 8x8 transform intra:90.5% inter:68.9%
x264 [info]: direct mvs spatial:99.5% temporal:0.5%
x264 [info]: coded y,uvDC,uvAC intra: 95.4% 65.1% 25.6% inter: 42.2% 29.2% 2.6%
x264 [info]: i16 v,h,dc,p: 20% 13% 34% 33%
x264 [info]: i8 v,h,dc,ddl,ddr,vr,hd,vl,hu: 11% 8% 9% 9% 13% 12% 13% 11% 14%
x264 [info]: i4 v,h,dc,ddl,ddr,vr,hd,vl,hu: 12% 7% 3% 8% 15% 16% 14% 12% 13%
x264 [info]: i8c dc,h,v,p: 34% 32% 22% 12%
x264 [info]: Weighted P-Frames: Y:50.0% UV:28.1%
x264 [info]: ref P L0: 42.2% 11.4% 15.2% 7.6% 5.7% 4.4% 3.6% 2.1% 1.8% 1.5% 1.2% 1.0% 0.9% 0.7% 0.5% 0.2%
x264 [info]: ref B L0: 72.0% 12.4% 5.5% 2.8% 2.0% 1.5% 1.2% 0.7% 0.6% 0.4% 0.4% 0.3% 0.2% 0.1%
x264 [info]: ref B L1: 94.8% 5.2%
x264 [info]: kb/s:2198.05
x264 [total]: encoded 120161 frames, 8.96 fps, 2198.05 kb/s
TIME
------------------------------
Total encoding time: 11 hour 33 min 14 sec

FAQ по просмотру MKV/h.264/AAC



Показать сообщения:    

Текущее время: 11-Дек 07:53

Часовой пояс: UTC ± 0


Вы не можете начинать темы
Вы не можете отвечать на сообщения
Вы не можете редактировать свои сообщения
Вы не можете удалять свои сообщения
Вы не можете голосовать в опросах
Вы не можете прикреплять файлы к сообщениям
Вы не можете скачивать файлы

!ВНИМАНИЕ!
Сайт не предоставляет электронные версии произведений, а занимается лишь коллекционированием и каталогизацией ссылок, присылаемых и публикуемых на форуме нашими читателями. Если вы являетесь правообладателем какого-либо представленного материала и не желаете, чтобы ссылка на него находилась в нашем каталоге, свяжитесь с нами, и мы незамедлительно удалим ее. Файлы для обмена на трекере предоставлены пользователями сайта, и администрация не несет ответственности за их содержание. Просьба не заливать файлы, защищенные авторскими правами, а также файлы нелегального содержания!