Белка и Стрелка: Озорная семейка. Выпуск 01-05 [01-40 из 40] ( Cвятослав Ушаков, Вячеслав Байрамгулов, Алексей Некрасов, Сергей Антонов, Екатерина Шабанова) [(2011-2012) мультфильм, короткометражка, детский, DVDRip] :: Ивановский Торрент трекер
Важное объявление!
У Нас Все раздачи мультитрекерные, при нуле пиров в релизах, можете смело вставать на закачку!
Статистика раздачи
Размер:     |    Зарегистрирован:     |    Скачан:     |   
Нет
 
     
 
 
Автор Сообщение

HUNTER

Стаж:
4 года 11 месяцев
Сообщений:
66052

Репутация: 101

[+] [-]
Вне форума [Профиль] [ЛС]

Белка и Стрелка: Озорная семейка---
Год выпуска: 2011
Страна: Россия
Жанр: мультфильм, короткометражка, детский
Продолжительность: 40 серий ~ 6 минут (03:56:50)
Оригинальная аудиодорожка: Русский
Режиссер: Cвятослав Ушаков, Вячеслав Байрамгулов, Алексей Некрасов, Сергей Антонов, Екатерина Шабанова
Озвучивали: Дмитрий Филимонов, Лариса Брохман, Ольга Шорохова...--Описание:
В сериале рассказывается о приключениях щенят, детей Белки и Казбека, на космодроме «Байконур». Умница Дина, всезнайка Рекс и хулиган Бублик мечтают попасть на космический корабль, как их родители. Эти попытки и приводят к различным комичным ситуациям, из которых малыши всегда находят выход. Добрый поучительный сюжет сериала пробуждает желание познавать мир и в то же время воспитывает чувство ответственности у детей, умение дружить и помогать близким....--

--Исходник: 5хDVD5
Тип релиза: DVDRip
Контейнер: AVI
Видео кодек: XviD
Аудио кодек: AC3
Видео: 720x400 (16:9), 25 fps, XviD MPEG-4 ~ 1820 kbps avg, 0.253 bit/pixel
Аудио: 48 kHz, AC3, 6 ch, 384.00 kbps-- --

MediaInfo

Код: copyText_writeLink('this.parentNode.parentNode.nextSibling.nextSibling'); Общее
Полное имя : Belka.i.Strelka.Ozornaja.semejka.2011.24s.DVDRip.avi
Формат : AVI
Формат/Информация : Audio Video Interleave
Размер файла : 93,2 Мбайт
Продолжительность : 5 м. 57 с.
Общий поток : 2214 Кбит/сек
Программа кодирования : VirtualDubMod 1.5.10.3 (build 2550/release)
Библиотека кодирования : VirtualDubMod build 2550/release
Видео
Идентификатор : 0
Формат : MPEG-4 Visual
Профиль формата : Advanced Simple@L5
Параметр BVOP формата : 1
Параметр QPel формата : Нет
Параметр GMC формата : Без точки перехода
Параметр матрицы формата : Выборочная
Идентификатор кодека : XVID
Идентификатор кодека/Подсказка : XviD
Продолжительность : 5 м. 57 с.
Битрейт : 1820 Кбит/сек
Ширина : 720 пикселей
Высота : 400 пикселей
Соотношение сторон : 16:9
Частота кадров : 25,000 кадров/сек
Цветовое пространство : YUV
Субдискретизация насыщенности : 4:2:0
Битовая глубина : 8 бит
Тип развёртки : Прогрессивная
Метод сжатия : С потерями
Бит/(Пиксели*Кадры) : 0.253
Размер потока : 76,4 Мбайт (82%)
Библиотека кодирования : XviD 1.2.1 (UTC 2008-12-04)
Аудио
Идентификатор : 1
Формат : AC-3
Формат/Информация : Audio Coding 3
Расширение режима : CM (complete main)
Идентификатор кодека : 2000
Продолжительность : 5 м. 57 с.
Вид битрейта : Постоянный
Битрейт : 384 Кбит/сек
Каналы : 6 каналов
Расположение каналов : Front: L C R, Side: L R, LFE
Частота : 48,0 КГц
Битовая глубина : 16 бит
Метод сжатия : С потерями
Размер потока : 16,4 Мбайт (18%)
Выравнивание : Разделение по промежуткам
Продолжительность промежутка : 40 мс. (1,00 видеокадр)
Время предзагрузки промежутка : 500 мс.

Список серий

01. Попасть на ТВ
02. Артиста много
03. Через тюбики
04. Немного заработать
05. Одни дома
06. Старый новый слон
07. Сюрприз из Америки
08. Тётя Мотя
09. Лекарство
10. В поисках попугая
11. Вопрос чистоты
12. Рыбалка для Бублика
13. Квартет
14. Цирк - это диагноз
15. Из песочницы к звездам
16. Впервые на арене
17. Снова к звёздам
18. Принцесса цирка
19. Страшная история
20. Глубина резкости
21. Куда улетают ёлки?
22. Настоящий Дед Мороз
23. Первый Снег
24. Повара
25. Самый любимый
26. Девятый вал
27. Настоящий герой
28. В небо
29. Мамин день рождения
30. Голова садовая
31. Правила движения
32. Прямой эфир
33. Это вам не фокусы!
34. Трудности севера
35. Чувство полета
36. Поход
37. Спасатели
38. Спасти Лапулю
39. День Сыра
40. День космонавтики

Постер



--

Пожалуйста, оставайтесь на раздаче как можно дольше--[size=32]Добавлен 5 выпуск

_________________
Показать сообщения:    

Текущее время: Сегодня 14:05

Часовой пояс: GMT



Вы не можете начинать темы
Вы не можете отвечать на сообщения
Вы не можете редактировать свои сообщения
Вы не можете удалять свои сообщения
Вы не можете голосовать в опросах
Вы не можете прикреплять файлы к сообщениям
Вы не можете скачивать файлы