Ивановский Торрент трекер
Яндекс.Погода
 

[Цитировать]
HUNTER

Белка и Стрелка звёздные собаки
Страна: Россия
Жанр: мульфильм
Продолжительность: 01:28:09
Год выпуска: 2010
Перевод: Не требуется
Русские субтитры: нет
Режиссёр: Святослав Ушаков, Инна Евланникова
Роли озвучивали: Анна Большова, Елена Яковлева. Евгений Миронов, Сергей Гармаш, Александр Баширов, Руслан Кулешов. Сергей Юшкевич, Николай Сморчков, Всеволод Кузнецов, Жанна Никонова
Описание: В космос? На ракете? Белка и Стрелка вряд ли об этом мечтали. Космос сам ворвался в их жизнь. Собаки вместе с крысом Веней и другими мохнатыми претендентами в космонавты случайно оказались в эпицентре исторических событий.
Качество: DVDrip
Формат: avi
Видео: XVID; 2104 Кбит/сек; 720х400 (16:9); 25,000 кадров/сек
Аудио: AC-3; 384 Кбит/сек; 6 каналов; 48,0 КГц
Субтитры: Отсутствуют
Исходник: http://rutracker.org/forum/viewtopic.php?t=4787588
Семпл: https://www.sendspace.com/file/jqaha1

Скриншоты

mi

Общее
Полное имя : E:\закачки\Звёздные собаки (rip) [rutracker.org].avi
Формат : AVI
Формат/Информация : Audio Video Interleave
Размер файла : 1,48 Гбайт
Продолжительность : 1 ч. 24 м.
Общий поток : 2498 Кбит/сек
Программа кодирования : VirtualDubMod 1.5.10.2 (build 2540/release)
Библиотека кодирования : VirtualDubMod build 2540/release
Видео
Идентификатор : 0
Формат : MPEG-4 Visual
Профиль формата : Advanced Simple@L5
Параметр BVOP формата : 2
Параметр QPel формата : Нет
Параметр GMC формата : Без точки перехода
Параметр матрицы формата : Default (H.263)
Идентификатор кодека : XVID
Идентификатор кодека/Подсказка : XviD
Продолжительность : 1 ч. 24 м.
Битрейт : 2104 Кбит/сек
Ширина : 720 пикселей
Высота : 400 пикселей
Соотношение сторон : 16:9
Частота кадров : 25,000 кадров/сек
Цветовое пространство : YUV
Субдискретизация насыщенности : 4:2:0
Битовая глубина : 8 бит
Тип развёртки : Прогрессивная
Метод сжатия : С потерями
Бит/(Пиксели*Кадры) : 0.292
Размер потока : 1,25 Гбайт (84%)
Библиотека кодирования : XviD 1.2.1 (UTC 2008-12-04)
Аудио
Идентификатор : 1
Формат : AC-3
Формат/Информация : Audio Coding 3
Расширение режима : CM (complete main)
Параметр Endianness формата : Big
Идентификатор кодека : 2000
Продолжительность : 1 ч. 24 м.
Вид битрейта : Постоянный
Битрейт : 384 Кбит/сек
Каналы : 6 каналов
Расположение каналов : Front: L C R, Side: L R, LFE
Частота : 48,0 КГц
Битовая глубина : 16 бит
Метод сжатия : С потерями
Размер потока : 233 Мбайт (15%)
Выравнивание : Соединение по промежуткам
Продолжительность промежутка : 40 мс. (1,00 видеокадр)
Время предзагрузки промежутка : 512 мс.


Показать сообщения:    

Текущее время: 16-Дек 01:39

Часовой пояс: UTC ± 0


Вы не можете начинать темы
Вы не можете отвечать на сообщения
Вы не можете редактировать свои сообщения
Вы не можете удалять свои сообщения
Вы не можете голосовать в опросах
Вы не можете прикреплять файлы к сообщениям
Вы не можете скачивать файлы

!ВНИМАНИЕ!
Сайт не предоставляет электронные версии произведений, а занимается лишь коллекционированием и каталогизацией ссылок, присылаемых и публикуемых на форуме нашими читателями. Если вы являетесь правообладателем какого-либо представленного материала и не желаете, чтобы ссылка на него находилась в нашем каталоге, свяжитесь с нами, и мы незамедлительно удалим ее. Файлы для обмена на трекере предоставлены пользователями сайта, и администрация не несет ответственности за их содержание. Просьба не заливать файлы, защищенные авторскими правами, а также файлы нелегального содержания!