Важное объявление!
У Нас Все раздачи мультитрекерные, при нуле пиров в релизах, можете смело вставать на закачку!
Статистика раздачи
Размер:     |    Зарегистрирован:     |    Скачан:     |   
Нет
 
     
 
 
Автор Сообщение

HUNTER

Стаж:
5 лет
Сообщений:
68018

Репутация: 101

[+] [-]
Вне форума [Профиль] [ЛС]

Белка и Стрелка звёздные собаки
Страна: Россия
Жанр: мульфильм
Продолжительность: 01:28:09
Год выпуска: 2010
Перевод: Не требуется
Русские субтитры: нет
Режиссёр: Святослав Ушаков, Инна Евланникова
Роли озвучивали: Анна Большова, Елена Яковлева. Евгений Миронов, Сергей Гармаш, Александр Баширов, Руслан Кулешов. Сергей Юшкевич, Николай Сморчков, Всеволод Кузнецов, Жанна Никонова
Описание: В космос? На ракете? Белка и Стрелка вряд ли об этом мечтали. Космос сам ворвался в их жизнь. Собаки вместе с крысом Веней и другими мохнатыми претендентами в космонавты случайно оказались в эпицентре исторических событий.
Доп. информация:
Фильм о фильме
Док. фильм "Дорога в космос"
Видео клип "В городе дождь"
Фотогалерея
Семпл: https://www.sendspace.com/file/erd7fk
Качество: DVD5
Формат: DVD-video
Видео: MPEG Video; 4838 Кбит/сек; 720х576(16:9); 25,000 кадров/сек; PAL
Аудио: AC-3; 384 Кбит/сек; 6 каналов; 48,0 КГц
Субтитры: Отсутствуют

DVDInfo

Title: Звёздные собаки [rutracker.org]Size: 4.05 Gb ( 4 248 904,00 KBytes ) - DVD-5Enabled regions: 1, 2, 3, 4, 5, 6, 7, 8
VTS_01 : Play Length: 01:24:51 Video: PAL 16:9 (720x576) VBR, Auto Letterboxed Audio: Russian, AC3, 3/2 (L,C,R,SL,SR)+LFE ch, 384 kbps, Delay 0 mSec
VTS_02 : Play Length: 00:00:00+00:00:00+00:00:00+00:00:00+00:00:00+00:00:00+00:00:00+00:00:00+00:00:00+00:00:00+00:00:00+00:00:00+00:00:00+00:00:00+00:00:00+00:00:00+00:00:00+00:00:00+00:00:00+00:00:00+00:00:00 Video: PAL 16:9 (720x576) VBR, Auto Letterboxed Subtitles: Not specified
VTS_03 : Play Length: 00:06:52+00:05:41+00:03:27 Video: PAL 4:3 (720x576) VBR Audio: Russian (Dolby AC3, 2 ch)
* Menus Information *
VIDEO_TS MenuVideo: PAL 4:3 (720x576) VBRAudio: Not specified (Dolby AC3, 6 ch)Russian Language Unit : Title Menu
VTS_01 MenuVideo: PAL 16:9 (720x576) VBR Auto Pan&ScanAudio: Not specified (Dolby AC3, 2 ch)Russian Language Unit : Root Menu Chapter (PTT) Menu
VTS_02 MenuVideo: PAL 16:9 (720x576) VBR Auto Pan&ScanRussian Language Unit : Root Menu
VTS_03 MenuVideo: PAL 16:9 (720x576) VBR Auto Pan&ScanRussian Language Unit : Root Menu

Скриншоты меню

Скриншоты

MI

Общее
Идентификатор : 1 (0x1)
Полное имя : E:\ТВ Тюнор\СЭМПЛ\vts_01_3.vob
Формат : MPEG-TS
Размер файла : 39,2 Мбайт
Продолжительность : 59 с.
Режим общего битрейта : Переменный
Общий поток : 5498 Кбит/сек
Максимальный общий битрейт : 35,5 Мбит/сек
Видео
Идентификатор : 4113 (0x1011)
Идентификатор меню : 1 (0x1)
Формат : MPEG Video
Версия формата : Version 2
Профиль формата : Main@Main
Параметр BVOP формата : Да
Параметр матрицы формата : Выборочная
Параметр GOP формата : Variable
Идентификатор кодека : 2
Продолжительность : 59 с.
Вид битрейта : Переменный
Битрейт : 4838 Кбит/сек
Максимальный битрейт : 9000 Кбит/сек
Ширина : 720 пикселей
Высота : 576 пикселей
Соотношение сторон : 16:9
Частота кадров : 25,000 кадров/сек
Стандарт вещания : PAL
Цветовое пространство : YUV
Субдискретизация насыщенности : 4:2:0
Битовая глубина : 8 бит
Тип развёртки : Чересстрочная
Порядок развёртки : Верхнее поле первое
Метод сжатия : С потерями
Бит/(Пиксели*Кадры) : 0.467
Временной код первого кадра : 01:53:22:11
Оригинал временного кода : Group of pictures header
Размер потока : 34,4 Мбайт (88%)
Аудио
Идентификатор : 4352 (0x1100)
Идентификатор меню : 1 (0x1)
Формат : AC-3
Формат/Информация : Audio Coding 3
Расширение режима : CM (complete main)
Параметр Endianness формата : Big
Идентификатор кодека : 129
Продолжительность : 59 с.
Вид битрейта : Постоянный
Битрейт : 384 Кбит/сек
Каналы : 6 каналов
Расположение каналов : Front: L C R, Side: L R, LFE
Частота : 48,0 КГц
Битовая глубина : 16 бит
Метод сжатия : С потерями
Задержка видео : -135 мс.
Размер потока : 2,73 Мбайт (7%)

_________________
Показать сообщения:    

Текущее время: Сегодня 18:42

Часовой пояс: GMT



Вы не можете начинать темы
Вы не можете отвечать на сообщения
Вы не можете редактировать свои сообщения
Вы не можете удалять свои сообщения
Вы не можете голосовать в опросах
Вы не можете прикреплять файлы к сообщениям
Вы не можете скачивать файлы