Ивановский Торрент трекер
Яндекс.Погода
 

[Цитировать]
димитри37

Без тормозов / Do Me a Favor / Trading Favors / Boy Meets Girl«Bad girls make good company.» Страна: США
Жанр: Драма, криминал
Год выпуска: 1997
Продолжительность: 01:39:36
Перевод: Авторский одноголосый закадровый (Пётр Карцев)
Cубтитры: нет
Оригинальная аудиодорожка: английская
Режиссер: Сондра Лок / Sondra Locke
В ролях: Розанна Аркетт, Джордж Дзундза, Девон Гаммерсолл, Джули Ариола, Фрэнсис Фишер, Джейсон Херви, Крэйг Най, Дьюк Валенти, Чад Лоу, Саачико.
Описание: В маленькой грязной общественной уборной привлекательная женщина, сдирая кожу с кровью, пытается снять наручники со своих рук. Эта женщина далеко не святая: грабить и «кидать» людей она научилась замечательно.
Её разыскивает полиция и полоумный дружок, которого она обворовала до нитки. Теперь ей нужны новые наивные жертвы. И они, как нельзя кстати, оказались поблизости.
Но она не учла, что всё может произойти не так, как обычно. Обыкновенная авантюра обернётся головокружительным, рискованным путешествием, из которого она уже не вернётся…

За англоязычный DVD5 моя безграничная признательность Vesdaris
За предоставление русской звуковой дорожки с VHS большое спасибо Fikaloid

Качество видео: DVDRip
Формат видео: AVI
Видео: 720x544 (1.32:1), 25 fps, XviD build 50 ~1720 kbps avg, 0.17 bit/pixel
Аудио 1: 48 kHz, AC3 Dolby Digital, 2/0 (L,R) ch, ~192 kbps - русский
Аудио 2: 48 kHz, AC3 Dolby Digital, 2/0 (L,R) ch, ~192 kbps - английский

MediaInfo

General
Complete name : D:\Public\Do Me a Favor (1997) DVDRip.Rus+Eng.avi
Format : AVI
Format/Info : Audio Video Interleave
File size : 1.48 GiB
Duration : 1h 39mn
Overall bit rate : 2 120 Kbps
Writing application : VirtualDubMod 1.5.10.2 (build 2542/release)
Writing library : VirtualDubMod build 2542/release
Video
ID : 0
Format : MPEG-4 Visual
Format profile : Advanced Simple@L5
Format settings, BVOP : 1
Format settings, QPel : No
Format settings, GMC : No warppoints
Format settings, Matrix : Default (MPEG)
Codec ID : XVID
Codec ID/Hint : XviD
Duration : 1h 39mn
Bit rate : 1 722 Kbps
Width : 720 pixels
Height : 544 pixels
Display aspect ratio : 4:3
Frame rate : 25.000 fps
Color space : YUV
Chroma subsampling : 4:2:0
Bit depth : 8 bits
Scan type : Progressive
Compression mode : Lossy
Bits/(Pixel*Frame) : 0.176
Stream size : 1.20 GiB (81%)
Writing library : XviD 1.2.1 (UTC 2008-12-04)
Audio #1
ID : 1
Format : AC-3
Format/Info : Audio Coding 3
Mode extension : CM (complete main)
Codec ID : 2000
Duration : 1h 39mn
Bit rate mode : Constant
Bit rate : 192 Kbps
Channel(s) : 2 channels
Channel positions : Front: L R
Sampling rate : 48.0 KHz
Bit depth : 16 bits
Compression mode : Lossy
Stream size : 137 MiB (9%)
Alignment : Split accross interleaves
Interleave, duration : 40 ms (1.00 video frame)
Interleave, preload duration : 500 ms
Audio #2
ID : 2
Format : AC-3
Format/Info : Audio Coding 3
Mode extension : CM (complete main)
Codec ID : 2000
Duration : 1h 39mn
Bit rate mode : Constant
Bit rate : 192 Kbps
Channel(s) : 2 channels
Channel positions : Front: L R
Sampling rate : 48.0 KHz
Bit depth : 16 bits
Compression mode : Lossy
Stream size : 137 MiB (9%)
Alignment : Split accross interleaves
Interleave, duration : 40 ms (1.00 video frame)
Interleave, preload duration : 500 ms

Скриншот c названием фильма

Скриншоты



Показать сообщения:    

Текущее время: 13-Дек 01:42

Часовой пояс: UTC ± 0


Вы не можете начинать темы
Вы не можете отвечать на сообщения
Вы не можете редактировать свои сообщения
Вы не можете удалять свои сообщения
Вы не можете голосовать в опросах
Вы не можете прикреплять файлы к сообщениям
Вы не можете скачивать файлы

!ВНИМАНИЕ!
Сайт не предоставляет электронные версии произведений, а занимается лишь коллекционированием и каталогизацией ссылок, присылаемых и публикуемых на форуме нашими читателями. Если вы являетесь правообладателем какого-либо представленного материала и не желаете, чтобы ссылка на него находилась в нашем каталоге, свяжитесь с нами, и мы незамедлительно удалим ее. Файлы для обмена на трекере предоставлены пользователями сайта, и администрация не несет ответственности за их содержание. Просьба не заливать файлы, защищенные авторскими правами, а также файлы нелегального содержания!