Ивановский Торрент трекер
Яндекс.Погода
Статистика раздачи
Размер:  5.91 GB   |    Зарегистрирован:  2 года   |    Скачан:  0 раз

Полного источника не было: Никогда

 
     
 
 
 

[Цитировать]
HUNTER

Без следа / Without a Trace
Страна: США
Жанр: Драма, Детектив
Год выпуска: 1983
Продолжительность: 01:53:48.8
Перевод: Профессиональный (многоголосый закадровый) 1 канал
Cубтитры: нет
Оригинальная аудиодорожка: нет
Режиссер: Стэнли Р. Джаффе / Stanley R. Jaffe
В ролях: Кейт Неллиган, Джадд Хeрш, Дэвид Дьюкс, Стокард Ченнинг, Жаклин Брукс, Кит МакДермотт, Кэтлин Уиддоуз, Дэнни Коркилл, Шерил Джаннини, Дэвид Саймон
Описание: Фильм о женщине, работающей учительницей английского языка в Колумбийском Университете, у которой в один «прекрасный день» шестилетний сын исчезает с бруклинских улиц на коротком пути в школу. Ее муж бросил семью три месяца назад и переехал к какой-то девушке в Гринич-Виллидж. Но она держится с восхитительным самообладанием, даже когда копы и средства массовой информации врываются и практически заполняют весь ее дом, чтобы работать над делом. Следствие ведет группа во главе с Джаддом Хиршем, почти идеально отобранным для роли усталого, постоянно перерабатывающего детектива.
Сэмпл: http://multi-up.com/1076983
Тип релиза: HDTV 1080i
Контейнер: TS
Видео: AVC, 1920x1080 (16:9), 25.000 fps, 6 870 Kbps (0.133 bit/pixel)
Аудио: MP2, 48.0 KHz, 2 ch, 192 Kbps, CBR (Russian)

MediaInfo

Общее
Идентификатор : 1 (0x1)
Полное имя : K:\Без следа.ts
Формат : MPEG-TS
Размер файла : 5,91 Гбайт
Продолжительность : 1 ч. 53 м.
Режим общего битрейта : Переменный
Общий поток : 7431 Кбит/сек
Максимальный общий битрейт : 35,5 Мбит/сек
Видео
Идентификатор : 4113 (0x1011)
Идентификатор меню : 1 (0x1)
Формат : AVC
Формат/Информация : Advanced Video Codec
Профиль формата : Main@L4
Параметр CABAC формата : Да
Параметр ReFrames формата : 3 кадра
Параметр GOP формата : M=4, N=28
Идентификатор кодека : 27
Продолжительность : 1 ч. 53 м.
Битрейт : 6870 Кбит/сек
Ширина : 1920 пикселей
Высота : 1080 пикселей
Соотношение сторон : 16:9
Частота кадров : 25,000 кадров/сек
Стандарт вещания : Component
Цветовое пространство : YUV
Субдискретизация насыщенности : 4:2:0
Битовая глубина : 8 бит
Тип развёртки : Чересстрочная
Порядок развёртки : Верхнее поле первое
Бит/(Пиксели*Кадры) : 0.133
Размер потока : 5,46 Гбайт (92%)
Цветовой диапазон : Limited
Основные цвета : BT.709
Характеристики трансфера : BT.709
Коэффициенты матрицы : BT.709
Аудио
Идентификатор : 4352 (0x1100)
Идентификатор меню : 1 (0x1)
Формат : MPEG Audio
Версия формата : Version 1
Профиль формата : Layer 2
Идентификатор кодека : 4
Продолжительность : 1 ч. 53 м.
Вид битрейта : Постоянный
Битрейт : 192 Кбит/сек
Каналы : 2 канала
Частота : 48,0 КГц
Метод сжатия : С потерями
Размер потока : 156 Мбайт (3%)
Язык : Russian

Скриншоты

[iv-torrents.ru].t51760.torrent
Торрент: Зарегистрирован [ 2015-12-02 16:09 ] · 885B6D51931190FAA8CC2BB56F851E6208D7798B

Скачать .torrent

Скачать

30 KB

Статус: проверено
Скачан: 0 раз
Размер: 5.91 GB
terms.php


Показать сообщения:    

Текущее время: 11-Дек 01:57

Часовой пояс: UTC ± 0


Вы не можете начинать темы
Вы не можете отвечать на сообщения
Вы не можете редактировать свои сообщения
Вы не можете удалять свои сообщения
Вы не можете голосовать в опросах
Вы не можете прикреплять файлы к сообщениям
Вы можете скачивать файлы

!ВНИМАНИЕ!
Сайт не предоставляет электронные версии произведений, а занимается лишь коллекционированием и каталогизацией ссылок, присылаемых и публикуемых на форуме нашими читателями. Если вы являетесь правообладателем какого-либо представленного материала и не желаете, чтобы ссылка на него находилась в нашем каталоге, свяжитесь с нами, и мы незамедлительно удалим ее. Файлы для обмена на трекере предоставлены пользователями сайта, и администрация не несет ответственности за их содержание. Просьба не заливать файлы, защищенные авторскими правами, а также файлы нелегального содержания!