Ивановский Торрент трекер
Яндекс.Погода
 

[Цитировать]
HUNTER

Без обмана. ЖКХ : Война тарифов
Год выпуска: 2013
Страна: Россия, ООО "Report and Film"
Жанр: Документальный, расследование, криминал
Продолжительность: 00:26:32
Перевод: Не требуется
Русские субтитры: нет
Режиссер: Екатерина Игнатьева
Описание: "ЖКХ: война тарифов". Размер квартплаты и других тарифов возмущает все население страны. И есть граждане, которые объявляют ЖКХ войну. Но уменьшить квартплату под силу немногим… Это может стоить жизни! Как сегодня работают коммунальные службы и почему они так "прожорливы"? Кто тормозит реформы в этой сфере?
качество: SATRip
формат: AVI
Видео: 640х480 (1.33:1), 25 fps, XviD, ~1496 kbps avg, 0.19 bit/pixel
Аудио: 48 kHz, MPEG Layer 3, 2 ch, ~128 kbps avg

MediaInfo

Complete name : D:\Раздачи\bez_obmana_jkh_vojna_tarifov.avi
Format : AVI
Format/Info : Audio Video Interleave
File size : 310 MiB
Duration : 26mn 32s
Overall bit rate : 1 634 Kbps
Writing application : VirtualDubMod 1.5.10.3 | www.virtualdub-fr.org || (build 2550/release)
Writing library : VirtualDubMod build 2550/release
Video
ID : 0
Format : MPEG-4 Visual
Format profile : Advanced Simple@L5
Format settings, BVOP : 2
Format settings, QPel : No
Format settings, GMC : No warppoints
Format settings, Matrix : Default (MPEG)
Codec ID : XVID
Codec ID/Hint : XviD
Duration : 26mn 32s
Bit rate : 1 496 Kbps
Width : 640 pixels
Height : 480 pixels
Display aspect ratio : 4:3
Frame rate : 25.000 fps
Color space : YUV
Chroma subsampling : 4:2:0
Bit depth : 8 bits
Scan type : Progressive
Compression mode : Lossy
Bits/(Pixel*Frame) : 0.195
Stream size : 284 MiB (92%)
Writing library : XviD 1.2.1 (UTC 2008-12-04)
Audio
ID : 1
Format : MPEG Audio
Format version : Version 1
Format profile : Layer 3
Codec ID : 55
Codec ID/Hint : MP3
Duration : 26mn 32s
Bit rate mode : Constant
Bit rate : 128 Kbps
Channel(s) : 2 channels
Sampling rate : 48.0 KHz
Compression mode : Lossy
Stream size : 24.3 MiB (8%)
Alignment : Aligned on interleaves
Interleave, duration : 40 ms (1.00 video frame)
Interleave, preload duration : 504 ms
Writing library : LAME3.99r
Encoding settings : -m s -V 4 -q 2 -lowpass 17 -b 128

Скриншоты




Показать сообщения:    

Текущее время: 12-Дек 22:00

Часовой пояс: UTC ± 0


Вы не можете начинать темы
Вы не можете отвечать на сообщения
Вы не можете редактировать свои сообщения
Вы не можете удалять свои сообщения
Вы не можете голосовать в опросах
Вы не можете прикреплять файлы к сообщениям
Вы не можете скачивать файлы

!ВНИМАНИЕ!
Сайт не предоставляет электронные версии произведений, а занимается лишь коллекционированием и каталогизацией ссылок, присылаемых и публикуемых на форуме нашими читателями. Если вы являетесь правообладателем какого-либо представленного материала и не желаете, чтобы ссылка на него находилась в нашем каталоге, свяжитесь с нами, и мы незамедлительно удалим ее. Файлы для обмена на трекере предоставлены пользователями сайта, и администрация не несет ответственности за их содержание. Просьба не заливать файлы, защищенные авторскими правами, а также файлы нелегального содержания!