Без обмана. Битва на овощебазе (Екатерина Игнатьева) [2013, Документальный, расследование, криминал, SATRip] :: Ивановский Торрент трекер
Важное объявление!
У Нас Все раздачи мультитрекерные, при нуле пиров в релизах, можете смело вставать на закачку!
 
Автор Сообщение

HUNTER

Стаж:
4 года 11 месяцев
Сообщений:
66045

Репутация: 101

[+] [-]
Вне форума [Профиль] [ЛС]

Без обмана. Битва на овощебазе
Год выпуска: 2013
Страна: Россия, ОАО "ТВ Центр"
Жанр: Документальный, расследование, криминал
Продолжительность: 00:39:23
Перевод: Не требуется
Русские субтитры: нет
Режиссер: Екатерина Игнатьева
Описание: В мае 2013 года на овощебазе № 4 в Екатеринбурге произошла кровавая битва, в которой участвовали 500 мигрантов. Как овощной рынок России превратился в зону, живущую вне закона? Внимание к этой острой проблеме привлекли события в Бирюлево… Как живут овощебазы в столице? И чем торгуют на овощных "черкизонах"?
Сэмпл: http://sendfile.su/888007
качество: SATRip
формат: AVI
Видео: 640х480 (1.33:1), 25 fps, XviD, ~ 1396 kbps avg, 0.18 bit/pixel
Аудио: 48 kHz, MPEG Layer 3, 2 ch, ~128 kbps avg Показать скриншоты

MediaInfo

Complete name : D:\Раздачи\bez_obmana_bitva_na_ovoshebaze.avi
Format : AVI
Format/Info : Audio Video Interleave
File size : 432 MiB
Duration : 39mn 23s
Overall bit rate : 1 534 Kbps
Writing application : VirtualDubMod 1.5.10.3 | www.virtualdub-fr.org || (build 2550/release)
Writing library : VirtualDubMod build 2550/release
Video
ID : 0
Format : MPEG-4 Visual
Format profile : Advanced Simple@L5
Format settings, BVOP : 2
Format settings, QPel : No
Format settings, GMC : No warppoints
Format settings, Matrix : Default (MPEG)
Codec ID : XVID
Codec ID/Hint : XviD
Duration : 39mn 23s
Bit rate : 1 396 Kbps
Width : 640 pixels
Height : 480 pixels
Display aspect ratio : 4:3
Frame rate : 25.000 fps
Color space : YUV
Chroma subsampling : 4:2:0
Bit depth : 8 bits
Scan type : Progressive
Compression mode : Lossy
Bits/(Pixel*Frame) : 0.182
Stream size : 393 MiB (91%)
Writing library : XviD 1.2.1 (UTC 2008-12-04)
Audio
ID : 1
Format : MPEG Audio
Format version : Version 1
Format profile : Layer 3
Codec ID : 55
Codec ID/Hint : MP3
Duration : 39mn 23s
Bit rate mode : Constant
Bit rate : 128 Kbps
Channel(s) : 2 channels
Sampling rate : 48.0 KHz
Compression mode : Lossy
Stream size : 36.1 MiB (8%)
Alignment : Aligned on interleaves
Interleave, duration : 40 ms (1.00 video frame)
Interleave, preload duration : 504 ms
Writing library : LAME3.99r
Encoding settings : -m s -V 4 -q 2 -lowpass 17 -b 128

Скриншоты



_________________
Показать сообщения:    

Текущее время: Сегодня 15:56

Часовой пояс: GMT



Вы не можете начинать темы
Вы не можете отвечать на сообщения
Вы не можете редактировать свои сообщения
Вы не можете удалять свои сообщения
Вы не можете голосовать в опросах
Вы не можете прикреплять файлы к сообщениям
Вы не можете скачивать файлы