Ивановский Торрент трекер
Яндекс.Погода
 

[Цитировать]
HUNTER

Безумный Макс: Дорога яростиMad Max: Fury Road«Какой чудесный день»- Год выпуска: 2015
Страна: Австралия, США
Жанр: боевик, фантастика, приключения

Продолжительность: 02:00:21-Перевод: Профессиональный (полное дублирование) [Чистый звук]
Примечание: Присутствует около 4 минут вставок звука с TS
Режиссер: Джордж Миллер / George Miller
В ролях: Том Харди (Max Rockatansky), Шарлиз Терон (Imperator Furiosa), Николас Холт (Nux), Хью Кияс-Бёрн (Immortan Joe), Райли Кио (Capable), Роузи Хантингтон-Уайтли (The Splendid Angharad), Зои Кравиц (Toast the Knowing), Эбби Ли (The Dag), Кортни Итон (Cheedo the Fragile), Нэйтан Джонс (Rictus Erectus), Джош Хелман (Slit), Джон Ховард (The People Eater)-Описание: Преследуемый призраками беспокойного прошлого, Макс уверен, что лучший способ выжить - скитаться в одиночестве. Несмотря на это, он присоединяется к бунтарям, бегущим через всю пустыню на боевой фуре, под предводительством военачальника Фуриосы.
Они пытаются сбежать из Цитадели, страдающей от тирании Несмертного Джо, у которого они забрали кое-что очень ценное. Разъярённый военачальник бросает все свои силы на погоню за мятежниками, ступая на дорогу войны - дорогу ярости.
--Качество: WEB-DL 1080p
Контейнер: MKV
Видео кодек: AVC
Аудио кодек: AC3
Видео: AVC, 1912x792 (2.40:1), 3300 kbps, 23,976 fps, 0,091 bpp
Аудио: / AC3 / 2.0 / 48 kHz / 256 kbps / 16 bit -

Рейтинг

-

Скриншоты

Media Info

General
Unique ID : 253046935365273376062875682693802515530 (0xBE5F1127EE313BA9A6256851FA465C4A)
Complete name : D:\Безумный Макс. Дорога ярости.2015.WEB-DL 1080p..mkv
Format : Matroska
Format version : Version 4 / Version 2
File size : 2.99 GiB
Duration : 2h 0mn
Overall bit rate : 3 557 Kbps
Encoded date : UTC 2015-07-03 21:05:25
Writing application : mkvmerge v7.8.0 ('River Man') 32bit built on Mar 27 2015 16:18:02
Writing library : libebml v1.3.1 + libmatroska v1.4.2
DURATION : 02:00:21.024000000
NUMBER_OF_FRAMES : 225657
NUMBER_OF_BYTES : 231072768
_STATISTICS_WRITING_APP : mkvmerge v7.8.0 ('River Man') 32bit built on Mar 27 2015 16:18:02
_STATISTICS_WRITING_DATE_UTC : 2015-07-03 21:05:25
_STATISTICS_TAGS : BPS DURATION NUMBER_OF_FRAMES NUMBER_OF_BYTES
Attachment : Yes / Yes / Yes / Yes
Video
ID : 1
Format : AVC
Format/Info : Advanced Video Codec
Format profile : High@L4.1
Format settings, CABAC : Yes
Format settings, ReFrames : 15 frames
Codec ID : V_MPEG4/ISO/AVC
Duration : 2h 0mn
Bit rate : 3 300 Kbps
Width : 1 912 pixels
Height : 792 pixels
Display aspect ratio : 2.40:1
Frame rate mode : Constant
Frame rate : 23.976 fps
Color space : YUV
Chroma subsampling : 4:2:0
Bit depth : 8 bits
Scan type : Progressive
Bits/(Pixel*Frame) : 0.091
Stream size : 2.72 GiB (91%)
Title : Mad.Max.Fury.Road.2015.1080p.WEB-DL.DD5.1.H264-RARBG
Writing library : x264 core 128 r2216M 198a7ea
Encoding settings : cabac=1 / ref=16 / deblock=1:0:0 / analyse=0x3:0x133 / me=umh / subme=9 / psy=1 / psy_rd=1.00:0.20 / mixed_ref=1 / me_range=16 / chroma_me=1 / trellis=0 / 8x8dct=1 / cqm=0 / deadzone=21,11 / fast_pskip=1 / chroma_qp_offset=-2 / threads=4 / lookahead_threads=1 / sliced_threads=0 / nr=0 / decimate=1 / interlaced=0 / bluray_compat=0 / constrained_intra=0 / bframes=16 / b_pyramid=1 / b_adapt=0 / b_bias=0 / direct=3 / weightb=1 / open_gop=0 / weightp=0 / keyint=230 / keyint_min=23 / scenecut=40 / intra_refresh=0 / rc_lookahead=40 / rc=2pass / mbtree=1 / bitrate=3300 / ratetol=1.0 / qcomp=0.60 / qpmin=10 / qpmax=51 / qpstep=4 / cplxblur=20.0 / qblur=0.5 / ip_ratio=1.40 / aq=1:1.00
Language : English
Default : Yes
Forced : No
_STATISTICS_WRITING_APP : mkvmerge v7.8.0 ('River Man') 32bit built on Mar 27 2015 16:18:02
_STATISTICS_WRITING_DATE_UTC : 2015-07-03 21:05:25
_STATISTICS_TAGS : BPS DURATION NUMBER_OF_FRAMES NUMBER_OF_BYTES
DURATION : 02:00:21.138000000
NUMBER_OF_FRAMES : 173134
NUMBER_OF_BYTES : 2977889921
Audio
ID : 2
Format : AC-3
Format/Info : Audio Coding 3
Mode extension : CM (complete main)
Format settings, Endianness : Big
Codec ID : A_AC3
Duration : 2h 0mn
Bit rate mode : Constant
Bit rate : 256 Kbps
Channel count : 2 channels
Channel positions : Front: L R
Sampling rate : 48.0 KHz
Bit depth : 16 bits
Compression mode : Lossy
Stream size : 220 MiB (7%)
Language : Russian
Default : Yes
Forced : No
Menu
00:00:00.000 : en:1
00:10:42.000 : en:2
00:19:06.000 : en:3
00:30:13.000 : en:4
00:42:55.000 : en:5
00:49:33.000 : en:6
00:59:55.000 : en:7
01:13:02.000 : en:8
01:22:08.000 : en:9
01:30:02.000 : en:10
01:40:39.000 : en:11
01:49:12.000 : en:12
01:53:05.000 : en:13


Показать сообщения:    

Текущее время: 12-Дек 04:52

Часовой пояс: UTC ± 0


Вы не можете начинать темы
Вы не можете отвечать на сообщения
Вы не можете редактировать свои сообщения
Вы не можете удалять свои сообщения
Вы не можете голосовать в опросах
Вы не можете прикреплять файлы к сообщениям
Вы не можете скачивать файлы

!ВНИМАНИЕ!
Сайт не предоставляет электронные версии произведений, а занимается лишь коллекционированием и каталогизацией ссылок, присылаемых и публикуемых на форуме нашими читателями. Если вы являетесь правообладателем какого-либо представленного материала и не желаете, чтобы ссылка на него находилась в нашем каталоге, свяжитесь с нами, и мы незамедлительно удалим ее. Файлы для обмена на трекере предоставлены пользователями сайта, и администрация не несет ответственности за их содержание. Просьба не заливать файлы, защищенные авторскими правами, а также файлы нелегального содержания!