Ивановский Торрент трекер
Яндекс.Погода
 

[Цитировать]
HUNTER

Безумный, безумный, безумный кролик Банни / Looney, Looney, Looney Bugs Bunny Movie
Страна: США
Жанр: мультфильм, комедия, криминал, семейный, вестерн, музыка
Продолжительность: 01:19:34
Год выпуска: 1981
Перевод 1: Профессиональный (многоголосый, закадровый) ТНТ
Перевод 2: Авторский (одноголосый закадровый) Витя "Говорун"
Русские субтитры: английские SRT
Оригинальная дорожка: Английский
Режиссёр: Фриц Фрилинг / Friz Freleng
Роли озвучивали: Мэл Бланк,Джун Форэй, Стэн Фреберг, Ральф Джеймс, Фрэнк Нельсон, Фрэнк Уэлкер
Описание: Вы не знаете, с кем вы связались. Вы не знаете, что он может. Он запутает следы. Выстрелит в вас из пушки. Разрежет вас на куски. И хрустнет напоследок своей любимой морковкой. Да, он — Багз Банни. В чем дело, док? Ты куда?

Качество: WEB-DL 1080p
Формат: MKV
Видео: H264, 1480x1080 (1.37:1), 23.976 fps, ~4861 kbps avg, 0.127 bit/pixel
Аудио №1: AC3, 48 kHz, AC3 Dolby Digital, 2 ch, ~192 kbps ТНТ
Аудио №2: AC3, 48 kHz, AC3 Dolby Digital, 2 ch, ~192 kbps Витя "Говорун"
Аудио №3: AC3, 48 kHz, AC3 Dolby Digital, 2 ch, ~192 kbps Оригинал

Подробные технические данные

Полное имя : Безумный, безумный, безумный кролик Банни.mkvФормат : MatroskaВерсия формата : Version 4 / Version 2Размер файла : 3,08 ГбайтПродолжительность : 1 ч. 19 м.Общий поток : 5547 Кбит/секДата кодирования : UTC 2014-08-20 08:10:22Программа кодирования : mkvmerge v7.1.0 ('Good Love') 64bit built on Jul 27 2014 13:06:55Библиотека кодирования : libebml v1.3.0 + libmatroska v1.4.1DURATION : 01:19:35.008000000NUMBER_OF_FRAMES : 149219NUMBER_OF_BYTES : 114600192_STATISTICS_WRITING_APP : mkvmerge v7.1.0 ('Good Love') 64bit built on Jul 27 2014 13:06:55_STATISTICS_WRITING_DATE_UTC : 2014-08-20 08:10:22_STATISTICS_TAGS : BPS DURATION NUMBER_OF_FRAMES NUMBER_OF_BYTES
ВидеоИдентификатор : 1Формат : AVCФормат/Информация : Advanced Video CodecПрофиль формата : High@L4.0Параметр CABAC формата : ДаПараметр ReFrames формата : 5 кадровПараметр GOP формата : N=2Идентификатор кодека : V_MPEG4/ISO/AVCПродолжительность : 1 ч. 19 м.Битрейт : 4861 Кбит/секШирина : 1480 пикселейВысота : 1080 пикселейСоотношение сторон : 1,370Режим частоты кадров : ПостоянныйЧастота кадров : 23,976 кадра/секЦветовое пространство : YUVСубдискретизация насыщенности : 4:2:0Битовая глубина : 8 битТип развёртки : ПрогрессивнаяБит/(Пиксели*Кадры) : 0.127Размер потока : 2,70 Гбайт (88%)Язык : EnglishDefault : ДаForced : НетОсновные цвета : BT.709Характеристики трансфера : BT.709Коэффициенты матрицы : BT.709
Аудио #1Идентификатор : 2Формат : AC-3Формат/Информация : Audio Coding 3Расширение режима : CM (complete main)Параметр Endianness формата : BigИдентификатор кодека : A_AC3Продолжительность : 1 ч. 19 м.Вид битрейта : ПостоянныйБитрейт : 192 Кбит/секКаналы : 2 каналаРасположение каналов : Front: L RЧастота : 48,0 КГцБитовая глубина : 16 битМетод сжатия : С потерямиРазмер потока : 109 Мбайт (3%)Заголовок : THTЯзык : RussianDefault : ДаForced : Нет
Аудио #2Идентификатор : 3Формат : AC-3Формат/Информация : Audio Coding 3Расширение режима : CM (complete main)Параметр Endianness формата : BigИдентификатор кодека : A_AC3Продолжительность : 1 ч. 19 м.Вид битрейта : ПостоянныйБитрейт : 192 Кбит/секКаналы : 2 каналаРасположение каналов : Front: L RЧастота : 48,0 КГцБитовая глубина : 16 битМетод сжатия : С потерямиРазмер потока : 109 Мбайт (3%)Заголовок : GovorunЯзык : RussianDefault : НетForced : Нет
Аудио #3Идентификатор : 4Формат : AC-3Формат/Информация : Audio Coding 3Расширение режима : CM (complete main)Параметр Endianness формата : BigИдентификатор кодека : A_AC3Продолжительность : 1 ч. 19 м.Вид битрейта : ПостоянныйБитрейт : 192 Кбит/секКаналы : 2 каналаРасположение каналов : Front: L RЧастота : 48,0 КГцБитовая глубина : 16 битМетод сжатия : С потерямиРазмер потока : 109 Мбайт (3%)Заголовок : OriginalЯзык : EnglishDefault : НетForced : Нет
ТекстИдентификатор : 5Формат : UTF-8Идентификатор кодека : S_TEXT/UTF8Идентификатор кодека/Информация : UTF-8 Plain TextЯзык : EnglishDefault : НетForced : Нет

Скриншоты

0 человек читают эту тему: 0 пользователей, 0 скрытых пользователей, 0 гостей

Показать сообщения:    

Текущее время: 24-Авг 09:35

Часовой пояс: UTC - 1


Вы не можете начинать темы
Вы не можете отвечать на сообщения
Вы не можете редактировать свои сообщения
Вы не можете удалять свои сообщения
Вы не можете голосовать в опросах
Вы не можете прикреплять файлы к сообщениям
Вы не можете скачивать файлы

!ВНИМАНИЕ!
Сайт не предоставляет электронные версии произведений, а занимается лишь коллекционированием и каталогизацией ссылок, присылаемых и публикуемых на форуме нашими читателями. Если вы являетесь правообладателем какого-либо представленного материала и не желаете, чтобы ссылка на него находилась в нашем каталоге, свяжитесь с нами, и мы незамедлительно удалим ее. Файлы для обмена на трекере предоставлены пользователями сайта, и администрация не несет ответственности за их содержание. Просьба не заливать файлы, защищенные авторскими правами, а также файлы нелегального содержания!