Безумный, безумный, безумный кролик Банни / Looney, Looney, Looney Bugs Bunny Movie (Фриц Фрилинг / Friz Freleng) [1981, мультфильм, комедия, криминал, семейный, вестерн, музыка, WEB-DLRip] MVO + AVO (Витя "Говорун") :: Ивановский Торрент трекер
Важное объявление!
У Нас Все раздачи мультитрекерные, при нуле пиров в релизах, можете смело вставать на закачку!
Статистика раздачи
Размер:     |    Зарегистрирован:     |    Скачан:     |   
Нет
 
     
 
 
Автор Сообщение

HUNTER

Стаж:
4 года 11 месяцев
Сообщений:
66066

Репутация: 101

[+] [-]
Вне форума [Профиль] [ЛС]

Безумный, безумный, безумный кролик Банни / Looney, Looney, Looney Bugs Bunny Movie
Страна: США
Жанр: мультфильм, комедия, криминал, семейный, вестерн, музыка
Продолжительность: 01:19:34
Год выпуска: 1981
Перевод 1: Профессиональный (многоголосый, закадровый) ТНТ
Перевод 2: Авторский (одноголосый закадровый) Витя "Говорун"
Русские субтитры: нет
Режиссёр: Фриц Фрилинг / Friz Freleng
Роли озвучивали: Мэл Бланк,Джун Форэй, Стэн Фреберг, Ральф Джеймс, Фрэнк Нельсон, Фрэнк Уэлкер
Описание: Вы не знаете, с кем вы связались. Вы не знаете, что он может. Он запутает следы. Выстрелит в вас из пушки. Разрежет вас на куски. И хрустнет напоследок своей любимой морковкой. Да, он — Багз Банни. В чем дело, док? Ты куда?

Качество: WEB-DLRip [WEB-DL 1080p]
Формат: AVI
Видео: Xvid, 656x480 (1.37:1), 23.976 fps, XviD build 73 ~1012 kbps avg, 0.13 bit/pixel
Аудио №1: Mp3, 48 kHz, MPEG Layer 3, 2 ch, ~128.00 kbps avg ТНТ
Аудио №2: Mp3, 48 kHz, MPEG Layer 3, 2 ch, ~128.00 kbps avg Витя "Говорун"
Субтитры: отсутствуют

Подробные технические данные

Полное имя : Безумный, безумный, безумный кролик Банни.aviФормат : AVIФормат/Информация : Audio Video InterleaveРазмер файла : 730 МбайтПродолжительность : 1 ч. 19 м.Общий поток : 1283 Кбит/секПрограмма кодирования : VirtualDubMod 1.5.10.2 (build 2540/release)Библиотека кодирования : VirtualDubMod build 2540/release
ВидеоИдентификатор : 0Формат : MPEG-4 VisualПрофиль формата : Advanced Simple@L5Параметр BVOP формата : 2Параметр QPel формата : НетПараметр GMC формата : Без точки переходаПараметр матрицы формата : Default (H.263)Идентификатор кодека : XVIDИдентификатор кодека/Подсказка : XviDПродолжительность : 1 ч. 19 м.Битрейт : 1013 Кбит/секШирина : 656 пикселейВысота : 480 пикселейСоотношение сторон : 4:3Частота кадров : 23,976 кадра/секЦветовое пространство : YUVСубдискретизация насыщенности : 4:2:0Битовая глубина : 8 битТип развёртки : ПрогрессивнаяМетод сжатия : С потерямиБит/(Пиксели*Кадры) : 0.134Размер потока : 577 Мбайт (79%)Библиотека кодирования : XviD 73
Аудио #1Идентификатор : 1Формат : MPEG AudioВерсия формата : Version 1Профиль формата : Layer 3Режим : Joint stereoРасширение режима : MS StereoИдентификатор кодека : 55Идентификатор кодека/Подсказка : MP3Продолжительность : 1 ч. 19 м.Вид битрейта : ПостоянныйБитрейт : 128 Кбит/секКаналы : 2 каналаЧастота : 48,0 КГцМетод сжатия : С потерямиРазмер потока : 72,9 Мбайт (10%)Выравнивание : Соединение по промежуткамПродолжительность промежутка : 42 мс. (1,00 видеокадр)Время предзагрузки промежутка : 504 мс.Библиотека кодирования : LAME3.99rНастройки программы : -m j -V 4 -q 2 -lowpass 17 -b 128
Аудио #2Идентификатор : 2Формат : MPEG AudioВерсия формата : Version 1Профиль формата : Layer 3Режим : Joint stereoРасширение режима : MS StereoИдентификатор кодека : 55Идентификатор кодека/Подсказка : MP3Продолжительность : 1 ч. 19 м.Вид битрейта : ПостоянныйБитрейт : 128 Кбит/секКаналы : 2 каналаЧастота : 48,0 КГцМетод сжатия : С потерямиРазмер потока : 72,9 Мбайт (10%)Выравнивание : Соединение по промежуткамПродолжительность промежутка : 42 мс. (1,00 видеокадр)Время предзагрузки промежутка : 504 мс.Библиотека кодирования : LAME3.99rНастройки программы : -m j -V 4 -q 2 -lowpass 17 -b 128

Скриншоты


_________________
Показать сообщения:    

Текущее время: Сегодня 15:32

Часовой пояс: GMT



Вы не можете начинать темы
Вы не можете отвечать на сообщения
Вы не можете редактировать свои сообщения
Вы не можете удалять свои сообщения
Вы не можете голосовать в опросах
Вы не можете прикреплять файлы к сообщениям
Вы не можете скачивать файлы