Ивановский Торрент трекер
Яндекс.Погода
 

[Цитировать]
HUNTER

Безродные звериBeasts of No Nation- Год выпуска: 2015
Страна: США
Жанр: драма, военный-Продолжительность: 02:16:33
Перевод: Субтитры budinanana
Субтитры: русский, английский
Оригинальная аудиодорожка: английский
Режиссёр: Кэри Джоджи Фукунага / Cary Joji Fukunaga
В ролях: Идрис Эльба, Абрам Атта, Эммануэль Аффадзи, Рики Аделайитор, Эндрю Эйдот, Вера Ньяркоа Антви, Эйма Абебрезе, Кобана Амисса-Сэм, Френсис Уедди, Фред Нии Умуги, Джон Артур, Грейс Норти, Эммари Браун, Наталиа Андо, Мэттью Мпоке Бигг, Нана Менса, Эрнест Аббеквай , Дэвид Донто, Квоми Гадаго, Эммануэль Ато Гарти, Брайан Энджелс, Альберт Джэксон О'Дэйвис, Эндрю Эдвардс, Эммануэль Нии Адом Квей, Бернард Квей, Феликс Оппонг Кьекьеку, Эбенезер Аннанфо, Зейбон Гибсон, Рэнди Афлакпуи, Джастис Промис Азуди и др.-Описание: Фильм расскажет о приключениях юноши по имени Агу, которого гражданская война на западе Африки принуждает вступить в команду наемников. Судьбе мало того, что парень пережил гибель отца и исчезновение сестры и матери, она погружает его в жизнь, полную насилия и жестокости.- -Sample-Качество: WEBRip 1080p
Формат: MKV
Видео: x264, 1920x808 (2.40:1), 23.976 fps, ~8300 kbps
Аудио: English 48 kHz, AC3, 6 ch, ~640.00 kbps avg |Original|
Субтитры: русские (budinanana), английские, португальские (вшитые на надписи и язык чви)-

Награды

Венецианский кинофестиваль (2015)
Победы:
Приз Марчелло Мастрояни - Абрам Атта
CICT-UNESCO Enrico Fulchignoni Award - Кэри Джоджи Фукунага
Номинации:
Золотой лев
Приз Green Drop Award
Лондонский кинофестиваль (2015)
Номинации:
Лучший фильм

Фрагмент субтитров

10
00:01:36,627 --> 00:01:37,628
Его?
11
00:01:37,711 --> 00:01:38,712
Да.
12
00:01:38,796 --> 00:01:40,923
<i> В нашей стране идёт война. </i>
13
00:01:41,006 --> 00:01:43,259
<i> И школы у нас больше нет. </i>
14
00:01:43,342 --> 00:01:46,595
<i> Так что мы искали, чем бы заняться.</i>
15
00:01:58,941 --> 00:02:00,359
И что мне с этим делать, Агу?
16
00:02:00,443 --> 00:02:01,860
Это телевизор. Я его продаю.
17
00:02:01,944 --> 00:02:03,904
Эту грязную штуку без экрана?
18
00:02:03,987 --> 00:02:04,988
Погнали!
19
00:02:05,073 --> 00:02:06,615
Мыльная опера.
20
00:02:06,699 --> 00:02:07,866
Быстрее!
21
00:02:09,368 --> 00:02:10,786
Пожалуйста, я люблю тебя!
22
00:02:10,786 --> 00:02:11,620
- Пожалуйста, я люблю тебя!
- А я нет.
23
00:02:11,704 --> 00:02:12,538
Но почему?
24
00:02:12,538 --> 00:02:13,956
- Но почему?
- Потому что ты не красавчик. Уйди!
25
00:02:14,040 --> 00:02:14,873
О, пожалуйста, молю.
26
00:02:14,873 --> 00:02:16,084
- О, пожалуйста, молю.
- Не преследуй меня! Уходи!
27
00:02:16,167 --> 00:02:17,668
<i>[Agu] У меня были идеи.</i>
28
00:02:17,751 --> 00:02:20,754
<i>- Уходи!
- А у Дика - талант.</i>
29
00:02:23,174 --> 00:02:24,258
Танцы! Танцы! Танцы!

MediaInfo

General
Unique ID : 217636869605319576205582251594477709688 (0xA3BB561F760BA84FA7A1E76E9CD3A978)
Complete name : D:\Фильмы\Beasts.Of.No.Nation.2015.1080p.WEBRip.x264.AC3.-whip93.mkv
Format : Matroska
Format version : Version 4 / Version 2
File size : 8.39 GiB
Duration : 2h 16mn
Overall bit rate : 8 796 Kbps
Movie name : Безродные звери | Beasts of No Nation (2015) whip93
Encoded date : UTC 2015-10-20 11:17:39
Writing application : mkvmerge v6.1.0 ('Old Devil') built on Mar 4 2013 09:10:42
Writing library : libebml v1.3.0 + libmatroska v1.4.0
Attachment : Yes
Video
ID : 1
Format : AVC
Format/Info : Advanced Video Codec
Format profile : High@L4.1
Format settings, CABAC : Yes
Format settings, ReFrames : 5 frames
Codec ID : V_MPEG4/ISO/AVC
Duration : 2h 16mn
Bit rate : 8 300 Kbps
Width : 1 920 pixels
Height : 808 pixels
Display aspect ratio : 2.40:1
Frame rate mode : Constant
Frame rate : 23.976 fps
Color space : YUV
Chroma subsampling : 4:2:0
Bit depth : 8 bits
Scan type : Progressive
Bits/(Pixel*Frame) : 0.223
Stream size : 7.61 GiB (91%)
Title : whip93
Writing library : x264 core 148 r2597 e86f3a1
Encoding settings : cabac=1 / ref=5 / deblock=1:-2:-1 / analyse=0x3:0x133 / me=umh / subme=9 / psy=1 / psy_rd=1.00:0.15 / mixed_ref=1 / me_range=16 / chroma_me=1 / trellis=2 / 8x8dct=1 / cqm=0 / deadzone=21,11 / fast_pskip=1 / chroma_qp_offset=-3 / threads=12 / lookahead_threads=2 / sliced_threads=0 / nr=0 / decimate=1 / interlaced=0 / bluray_compat=0 / constrained_intra=0 / bframes=3 / b_pyramid=2 / b_adapt=2 / b_bias=0 / direct=3 / weightb=1 / open_gop=0 / weightp=2 / keyint=240 / keyint_min=23 / scenecut=40 / intra_refresh=0 / rc_lookahead=60 / rc=abr / mbtree=1 / bitrate=8300 / ratetol=1.0 / qcomp=0.60 / qpmin=0 / qpmax=69 / qpstep=4 / vbv_maxrate=62500 / vbv_bufsize=78125 / nal_hrd=none / filler=0 / ip_ratio=1.40 / aq=3:1.00
Language : English
Default : Yes
Forced : No
Color primaries : BT.709
Transfer characteristics : BT.709
Matrix coefficients : BT.709
Audio
ID : 2
Format : AC-3
Format/Info : Audio Coding 3
Mode extension : CM (complete main)
Format settings, Endianness : Big
Codec ID : A_AC3
Duration : 2h 16mn
Bit rate mode : Constant
Bit rate : 640 Kbps
Channel(s) : 6 channels
Channel positions : Front: L C R, Side: L R, LFE
Sampling rate : 48.0 KHz
Bit depth : 16 bits
Compression mode : Lossy
Delay relative to video : 6ms
Stream size : 625 MiB (7%)
Title : Original
Language : English
Default : Yes
Forced : No
Text #1
ID : 3
Format : UTF-8
Codec ID : S_TEXT/UTF8
Codec ID/Info : UTF-8 Plain Text
Title : budinanana
Language : Russian
Default : No
Forced : No
Text #2
ID : 4
Format : UTF-8
Codec ID : S_TEXT/UTF8
Codec ID/Info : UTF-8 Plain Text
Language : English
Default : No
Forced : No

Скриншоты

-
Показать сообщения:    

Текущее время: 19-Сен 10:53

Часовой пояс: UTC - 1


Вы не можете начинать темы
Вы не можете отвечать на сообщения
Вы не можете редактировать свои сообщения
Вы не можете удалять свои сообщения
Вы не можете голосовать в опросах
Вы не можете прикреплять файлы к сообщениям
Вы не можете скачивать файлы

!ВНИМАНИЕ!
Сайт не предоставляет электронные версии произведений, а занимается лишь коллекционированием и каталогизацией ссылок, присылаемых и публикуемых на форуме нашими читателями. Если вы являетесь правообладателем какого-либо представленного материала и не желаете, чтобы ссылка на него находилась в нашем каталоге, свяжитесь с нами, и мы незамедлительно удалим ее. Файлы для обмена на трекере предоставлены пользователями сайта, и администрация не несет ответственности за их содержание. Просьба не заливать файлы, защищенные авторскими правами, а также файлы нелегального содержания!