Важное объявление!
У Нас Все раздачи мультитрекерные, при нуле пиров в релизах, можете смело вставать на закачку!
 
Автор Сообщение

HUNTER

Стаж:
4 года 7 месяцев
Сообщений:
61545

Репутация: 101

[+] [-]
Вне форума [Профиль] [ЛС]

Безграничный Бэтмен: Хаос / Batman Unlimited: Monster Mayhem
Страна: США
Жанр: мультфильм, боевик, приключения
Продолжительность: 01:20:12
Год выпуска: 2015
Перевод: Профессиональный (многоголосый закадровый)
Русские субтитры: нет-Режиссёр: Батч Лукич / Butch Lukic
Роли озвучивали: Ноэль Фишер, Трой Бэйкер, Кари Вурер, Уилл Фридел, Крис Диамантополос, Хари Пэйтон, Роджер Крэйг Смит, Юрий Ловенталь, Брайан Т. Делани, Фред Татаскьор-Описание: Команда из Бэтмена, Найтвинга, Киборга и Зеленой Стрелы противостоит Соломону Гранди, Глиноликому, Страшиле и Серебряной Банши. Возглавит шайку негодяев, конечно же, Джокер.-Качество: BDRip 1080p
Формат: MKV
Видео: AVC, 1920x1080 (16:9), 23.976 fps, 6 287 Kbps (0.126 bit/pixel)
Аудио 1: AC-3, 48.0 KHz, 2 ch, 192 Kbps, CBR (Russian) [iTunes]
Аудио 2: DTS, 48.0 KHz, 6 ch, 1 510 Kbps, CBR (English)
Субтитры: English
Семпл: Забираем тут

Подробные технические данные

GeneralUnique ID : 186243938155447108855860341648023613585 (0x8C1D471A52DEF155B4C83DE2BD67F091)Complete name : Batman Unlimited Monster Mayhem 2015 BDRip 1080p.mkvFormat : MatroskaFormat version : Version 4 / Version 2File size : 4.48 GiBDuration : 1h 20mnOverall bit rate : 7 991 KbpsEncoded date : UTC 2015-08-11 08:36:06Writing application : mkvmerge v8.2.0 ('World of Adventure') 64bitWriting library : libebml v1.3.1 + libmatroska v1.4.2DURATION : 01:19:55.332000000NUMBER_OF_FRAMES : 962NUMBER_OF_BYTES : 29588_STATISTICS_WRITING_APP : mkvmerge v8.2.0 ('World of Adventure') 64bit_STATISTICS_WRITING_DATE_UT : 2015-08-11 08:36:06_STATISTICS_TAGS : BPS DURATION NUMBER_OF_FRAMES NUMBER_OF_BYTES
VideoID : 1Format : AVCFormat/Info : Advanced Video CodecFormat profile : High@L4.1Format settings, CABAC : YesFormat settings, ReFrames : 4 framesCodec ID : V_MPEG4/ISO/AVCDuration : 1h 20mnBit rate : 6 287 KbpsWidth : 1 920 pixelsHeight : 1 080 pixelsDisplay aspect ratio : 16:9Frame rate mode : ConstantFrame rate : 23.976 fpsColor space : YUVChroma subsampling : 4:2:0Bit depth : 8 bitsScan type : ProgressiveBits/(Pixel*Frame) : 0.126Stream size : 3.44 GiB (77%)Writing library : x264 core 146 r2538 121396cEncoding settings : cabac=1 / ref=4 / deblock=1:0:0 / analyse=0x3:0x133 / me=umh / subme=7 / psy=1 / psy_rd=1.00:0.00 / mixed_ref=1 / me_range=16 / chroma_me=1 / trellis=1 / 8x8dct=1 / cqm=0 / deadzone=21,11 / fast_pskip=0 / chroma_qp_offset=-2 / threads=18 / lookahead_threads=3 / sliced_threads=0 / nr=0 / decimate=1 / interlaced=0 / bluray_compat=0 / constrained_intra=0 / bframes=3 / b_pyramid=2 / b_adapt=1 / b_bias=0 / direct=1 / weightb=1 / open_gop=0 / weightp=2 / keyint=250 / keyint_min=23 / scenecut=40 / intra_refresh=0 / rc_lookahead=40 / rc=2pass / mbtree=1 / bitrate=6287 / ratetol=1.0 / qcomp=0.60 / qpmin=0 / qpmax=69 / qpstep=4 / cplxblur=20.0 / qblur=0.5 / ip_ratio=1.40 / aq=1:1.00Language : EnglishDefault : YesForced : NoDURATION : 01:20:12.065000000NUMBER_OF_FRAMES : 115374NUMBER_OF_BYTES : 3783020899_STATISTICS_WRITING_APP : mkvmerge v8.2.0 ('World of Adventure') 64bit_STATISTICS_WRITING_DATE_UT : 2015-08-11 08:36:06_STATISTICS_TAGS : BPS DURATION NUMBER_OF_FRAMES NUMBER_OF_BYTES
Audio #1ID : 2Format : AC-3Format/Info : Audio Coding 3Mode extension : CM (complete main)Format settings, Endianness : BigCodec ID : A_AC3Duration : 1h 20mnBit rate mode : ConstantBit rate : 192 KbpsChannel(s) : 2 channelsChannel positions : Front: L RSampling rate : 48.0 KHzCompression mode : LossyStream size : 110 MiB (2%)Language : RussianDefault : YesForced : No
Audio #2ID : 3Format : DTSFormat/Info : Digital Theater SystemsMode : 16Format settings, Endianness : BigCodec ID : A_DTSDuration : 1h 20mnBit rate mode : ConstantBit rate : 1 509 KbpsChannel(s) : 6 channelsChannel positions : Front: L C R, Side: L R, LFESampling rate : 48.0 KHzBit depth : 24 bitsCompression mode : LossyStream size : 866 MiB (19%)Language : EnglishDefault : NoForced : No
TextID : 4Format : UTF-8Codec ID : S_TEXT/UTF8Codec ID/Info : UTF-8 Plain TextLanguage : EnglishDefault : NoForced : No
Menu00:00:00.000 : en:00:00:00.00000:07:35.872 : en:00:07:35.87200:12:23.701 : en:00:12:23.70100:21:30.247 : en:00:21:30.24700:33:22.292 : en:00:33:22.29200:40:40.647 : en:00:40:40.64700:49:40.352 : en:00:49:40.35201:00:00.889 : en:01:00:00.88901:09:33.544 : en:01:09:33.54401:17:37.319 : en:01:17:37.319

Скриншоты



_________________
Показать сообщения:    

Текущее время: Сегодня 15:24

Часовой пояс: GMT



Вы не можете начинать темы
Вы не можете отвечать на сообщения
Вы не можете редактировать свои сообщения
Вы не можете удалять свои сообщения
Вы не можете голосовать в опросах
Вы не можете прикреплять файлы к сообщениям
Вы не можете скачивать файлы
Наши партнеры: интернет магазин Ивановского трикотажа textilla.ru