Важное объявление!
У Нас Все раздачи мультитрекерные, при нуле пиров в релизах, можете смело вставать на закачку!
Статистика раздачи
Размер:     |    Зарегистрирован:     |    Скачан:     |   
Нет
 
     
 
 
Автор Сообщение

HUNTER

Стаж:
5 лет 1 месяц
Сообщений:
68429

Репутация: 101

[+] [-]
Вне форума [Профиль] [ЛС]

Безграничный Бэтмен: Животные инстинкты
Batman Unlimited: Animal Instincts
-
Страна: США
Жанр: мультфильм, фэнтези
Продолжительность: 01:17:22
Год выпуска: 2015
Перевод: Профессиональный (многоголосый закадровый)
Русские субтитры: нет
Режиссёр: Батч Лукич / Butch Lukic
Роли озвучивали: Уилл Фридел, Лора Бэйли, Крис Диамантополос, Роджер Крэйг Смит, Дэна Снайдер, Юрий Ловенталь, Кит Шарабайка-ОписаниеВ городе Готэм-сити злодей по прозвищу Пингвин организовал преступную группу Animilitia — горилла Сильвербек, гепард Гепардица, крокодил Убийца Крок и летучая мышь Мэн-Бэт. И противостоит им Бэтмен и его товарищи — Ночное Крыло (Дик Грейсон), Красный Робин (Тим Дрейк), Флэш, Зелёная Стрела.-Релиз:

Сэмпл
kinopoisk
Imdb
Качество: BDRip-AVC BDRemux 1080p - Работа с BDRemux'ом и звуком -Azureus-
Формат: MKV
Видео: AVC 2240 Kbps 1152 x 648 (1.778) 23.976 fps
Аудио: AC-3 192 Kbps 2 channels, 48.0 KHz MVO Rus
Аудио 2: AC-3 448 Kbps 6 channels, 48.0 KHz Eng
Субтитры: Eng SRT

MI

Format : MatroskaFormat version : Version 4 / Version 2File size : 1.59 GiBDuration : 1h 17mnOverall bit rate : 2 938 KbpsEncoded date : UTC 2015-05-08 07:33:31Writing application : mkvmerge v6.7.0 ('Back to the Ground') 32bit built on Jan 8 2014 15:03:17Writing library : libebml v1.3.0 + libmatroska v1.4.1
VideoID : 1Format : AVCFormat/Info : Advanced Video CodecFormat profile : High@L4.1Format settings, CABAC : YesFormat settings, ReFrames : 11 framesCodec ID : V_MPEG4/ISO/AVCDuration : 1h 17mnBit rate : 2 240 KbpsWidth : 1 152 pixelsHeight : 648 pixelsDisplay aspect ratio : 16:9Frame rate mode : ConstantFrame rate : 23.976 fpsColor space : YUVChroma subsampling : 4:2:0Bit depth : 8 bitsScan type : ProgressiveBits/(Pixel*Frame) : 0.125Stream size : 1.21 GiB (76%)Title : Batman Unlimited: Animal Instincts 2015 [rutracker.org]Writing library : x264 core 146 r2538kMod 121396cEncoding settings : cabac=1 / ref=11 / deblock=1:-2:-1 / analyse=0x3:0x133 / me=umh / subme=11 / psy=1 / fade_compensate=0.00 / psy_rd=1.00:0.05 / mixed_ref=1 / me_range=32 / chroma_me=1 / trellis=2 / 8x8dct=1 / cqm=0 / deadzone=21,11 / fast_pskip=0 / chroma_qp_offset=-3 / threads=12 / lookahead_threads=3 / sliced_threads=0 / nr=0 / decimate=1 / interlaced=0 / bluray_compat=0 / constrained_intra=0 / fgo=0 / bframes=12 / b_pyramid=2 / b_adapt=2 / b_bias=0 / direct=3 / weightb=1 / open_gop=0 / weightp=2 / keyint=250 / keyint_min=23 / scenecut=40 / intra_refresh=0 / rc_lookahead=80 / rc=crf / mbtree=0 / crf=17.1000 / qcomp=0.60 / qpmin=0 / qpmax=69 / qpstep=4 / vbv_maxrate=50000 / vbv_bufsize=62500 / crf_max=0.0 / nal_hrd=none / filler=0 / ip_ratio=1.40 / pb_ratio=1.30 / aq=3:0.90Language : EnglishDefault : YesForced : No
Audio #1ID : 2Format : AC-3Format/Info : Audio Coding 3Mode extension : CM (complete main)Format settings, Endianness : BigCodec ID : A_AC3Duration : 1h 17mnBit rate mode : ConstantBit rate : 192 KbpsChannel(s) : 2 channelsChannel positions : Front: L RSampling rate : 48.0 KHzBit depth : 16 bitsCompression mode : LossyStream size : 106 MiB (7%)Title : MVOLanguage : RussianDefault : YesForced : No
Audio #2ID : 3Format : AC-3Format/Info : Audio Coding 3Mode extension : CM (complete main)Format settings, Endianness : BigCodec ID : A_AC3Duration : 1h 17mnBit rate mode : ConstantBit rate : 448 KbpsChannel(s) : 6 channelsChannel positions : Front: L C R, Side: L R, LFESampling rate : 48.0 KHzBit depth : 16 bitsCompression mode : LossyStream size : 248 MiB (15%)Title : OrginalLanguage : EnglishDefault : NoForced : No
TextID : 4Format : UTF-8Codec ID : S_TEXT/UTF8Codec ID/Info : UTF-8 Plain TextLanguage : EnglishDefault : NoForced : No
Menu00:00:00.000 : en:Chapter 0100:10:35.801 : en:Chapter 0200:21:05.013 : en:Chapter 0300:29:05.744 : en:Chapter 0400:42:19.578 : en:Chapter 0500:50:51.673 : en:Chapter 0601:00:26.497 : en:Chapter 0701:09:28.164 : en:Chapter 0801:14:47.900 : en:Chapter 09

Скриншоты






_________________
Показать сообщения:    

Текущее время: Сегодня 11:24

Часовой пояс: GMT



Вы не можете начинать темы
Вы не можете отвечать на сообщения
Вы не можете редактировать свои сообщения
Вы не можете удалять свои сообщения
Вы не можете голосовать в опросах
Вы не можете прикреплять файлы к сообщениям
Вы не можете скачивать файлы