[Цитировать]
HUNTER

Безболезненный / Insensibles

-
-Страна: Испания, Франция, Португалия
Студия: A Contracorriente Films
Жанр: ужасы, фэнтези, триллер, детектив
Год выпуска: 2012
Продолжительность: 01:45:36--Перевод 1: Профессиональный (многоголосый закадровый) ivi
Перевод 2: Одноголосый закадровый den904 по переводу Janetta
Cубтитры: английские
Оригинальная аудиодорожка: испанский--Режиссер: Хуан Карлос Медина / Juan Carlos Medina
В ролях: Ирене Монтала, Дерек де Линт, Феликс Гомес ,Томас Лемаркус, Хуан Диего, Алекс Брендемюль, Ричард Феликс, Беа Сегура ,Луис Соле, Сильвия БелЭдельман--Описание: Группа детей, нечувствительных к боли, содержится во время испанской гражданской войны в седце Пиреней. В наши дни блестящий нейрохирург обнаруживает, что у него опухоль и отправляется на поиски биологических родителей, чтобы получить костный мозг для пересадки. По ходу путешествия он узнает ужасные тайны прошлого своей страны.--imdb | kinopoisk | Сэмпл--Тип релиза: BDRemux 1080p [Insensibles 2012 GER Extended 1080p Blu-Ray AVC DTS-HD MA 5.1-HDWinG]
Контейнер: MKV
Видео: MPEG-4 AVC / 29990 kbps / 1920x1080 / 24 fps / 16:9 / High Profile 4.1
Аудио 1: Russian AC3 / 2.0 / 48 kHz / 192 kbps / 16 bits |MVO, ivi|
Аудио 2: Russian DTS-HD Master Audio / 5.1 / 48 kHz / 3601 kbps / 24 bits (DTS Core: 5.1 / 48 kHz / 1509 kbps / 24 bits) |den904|
Аудио 3: Spanish DTS-HD Master Audio / 5.1 / 48 kHz / 3593 kbps / 24 bits (DTS Core: 5.1 / 48 kHz / 1509 kbps / 24 bits) |original|
Формат субтитров: softsub [SRT]

MediaInfo

Код:
Общее
Уникальный идентификатор                 : 208606479007410448420357925135933263241 (0x9CF0257DD6081553AE6B123FF18C4D89)
Полное имя                               : G:\HD\Безболезненный.2012.Blu-Ray.Remux.(1080p).mkv
Формат                                   : Matroska
Версия формата                           : Version 4 / Version 2
Размер файла                             : 27,5 Гбайт
Продолжительность                        : 1 ч. 45 м.
Режим общего битрейта                    : Переменный
Общий поток                              : 37,3 Мбит/сек
Дата кодирования                         : UTC 2016-03-07 16:35:30
Программа кодирования                    : mkvmerge v8.9.0 ('Father Daughter') 64bit
Библиотека кодирования                   : libebml v1.3.3 + libmatroska v1.4.4
Attachments                              : poster.jpg
Видео
Идентификатор                            : 1
Формат                                   : AVC
Формат/Информация                        : Advanced Video Codec
Профиль формата                          : High@L4.1
Параметр CABAC формата                   : Да
Параметр ReFrames формата                : 4 кадра
Идентификатор кодека                     : V_MPEG4/ISO/AVC
Продолжительность                        : 1 ч. 45 м.
Вид битрейта                             : Переменный
Битрейт                                  : 29,9 Мбит/сек
Максимальный битрейт                     : 35,0 Мбит/сек
Ширина                                   : 1920 пикселей
Высота                                   : 1080 пикселей
Соотношение сторон                       : 16:9
Режим частоты кадров                     : Постоянный
Частота кадров                           : 24,000 кадра/сек
Цветовое пространство                    : YUV
Субдискретизация насыщенности            : 4:2:0
Битовая глубина                          : 8 бит
Тип развёртки                            : Прогрессивная
Бит/(Пиксели*Кадры)                      : 0.600
Размер потока                            : 22,0 Гбайт (80%)
Default                                  : Да
Forced                                   : Нет
Аудио #1
Идентификатор                            : 2
Формат                                   : AC-3
Формат/Информация                        : Audio Coding 3
Расширение режима                        : CM (complete main)
Параметр Endianness формата              : Big
Идентификатор кодека                     : A_AC3
Продолжительность                        : 1 ч. 45 м.
Вид битрейта                             : Постоянный
Битрейт                                  : 192 Кбит/сек
Каналы                                   : 2 канала
Расположение каналов                     : Front: L R
Частота                                  : 48,0 КГц
Частота кадров                           : 31,250 кадров/сек (1536 spf)
Метод сжатия                             : С потерями
Размер потока                            : 145 Мбайт (1%)
Заголовок                                : MVO, ivi
Язык                                     : Russian
Default                                  : Нет
Forced                                   : Нет
Аудио #2
Идентификатор                            : 3
Формат                                   : DTS
Формат/Информация                        : Digital Theater Systems
Профиль формата                          : MA / Core
Режим                                    : 16
Параметр Endianness формата              : Big
Идентификатор кодека                     : A_DTS
Продолжительность                        : 1 ч. 45 м.
Вид битрейта                             : Переменный / Постоянный
Битрейт                                  : 3601 Кбит/сек / 1509 Кбит/сек
Каналы                                   : 6 каналов
Расположение каналов                     : Front: L C R, Side: L R, LFE
Частота                                  : 48,0 КГц
Частота кадров                           : 93,750 кадра/сек (512 spf)
Битовая глубина                          : 24 бит
Метод сжатия                             : Без потерь / Lossy
Размер потока                            : 2,66 Гбайт (10%)
Заголовок                                : den904
Язык                                     : Russian
Default                                  : Да
Forced                                   : Нет
Аудио #3
Идентификатор                            : 4
Формат                                   : DTS
Формат/Информация                        : Digital Theater Systems
Профиль формата                          : MA / Core
Режим                                    : 16
Параметр Endianness формата              : Big
Идентификатор кодека                     : A_DTS
Продолжительность                        : 1 ч. 45 м.
Вид битрейта                             : Переменный / Постоянный
Битрейт                                  : 3593 Кбит/сек / 1509 Кбит/сек
Каналы                                   : 6 каналов
Расположение каналов                     : Front: L C R, Side: L R, LFE
Частота                                  : 48,0 КГц
Частота кадров                           : 93,750 кадра/сек (512 spf)
Битовая глубина                          : 24 бит
Метод сжатия                             : Без потерь / Lossy
Размер потока                            : 2,65 Гбайт (10%)
Язык                                     : Spanish
Default                                  : Нет
Forced                                   : Нет
Текст
Идентификатор                            : 5
Формат                                   : UTF-8
Идентификатор кодека                     : S_TEXT/UTF8
Идентификатор кодека/Информация          : UTF-8 Plain Text
Продолжительность                        : 1 ч. 38 м.
Битрейт                                  : 18 бит/сек
Count of elements                        : 562
Размер потока                            : 13,6 Кбайт (0%)
Язык                                     : English
Default                                  : Нет
Forced                                   : Нет
Меню
00:00:00.000                             : :Chapter 01
00:08:24.541                             : :Chapter 02
00:19:28.541                             : :Chapter 03
00:26:50.875                             : :Chapter 04
00:38:31.250                             : :Chapter 05
00:49:00.125                             : :Chapter 06
01:01:15.458                             : :Chapter 07
01:10:44.916                             : :Chapter 08
01:20:19.625                             : :Chapter 09
01:29:38.791                             : :Chapter 10

Скриншоты


Дополнительно

Цитата:
Цитата:

Дорожка №2 получена наложением чистого голоса на центр декодированного DTS-HD MA.
За исходник взят немецкий трансфер

GER 1080p BluRay (этот релиз) VS FRA 1080i BluRay



Торрент-файл перезалит 07.03.2016. Добавлен проф. перевод
0 человек читают эту тему: 0 пользователей, 0 скрытых пользователей, 0 гостей

Показать сообщения:    

Текущее время: 22-Авг 15:52

Часовой пояс: UTC - 1


Вы не можете начинать темы
Вы не можете отвечать на сообщения
Вы не можете редактировать свои сообщения
Вы не можете удалять свои сообщения
Вы не можете голосовать в опросах
Вы не можете прикреплять файлы к сообщениям
Вы не можете скачивать файлы

!ВНИМАНИЕ!
Сайт не предоставляет электронные версии произведений, а занимается лишь коллекционированием и каталогизацией ссылок, присылаемых и публикуемых на форуме нашими читателями. Если вы являетесь правообладателем какого-либо представленного материала и не желаете, чтобы ссылка на него находилась в нашем каталоге, свяжитесь с нами, и мы незамедлительно удалим ее. Файлы для обмена на трекере предоставлены пользователями сайта, и администрация не несет ответственности за их содержание. Просьба не заливать файлы, защищенные авторскими правами, а также файлы нелегального содержания!