Важное объявление!
У Нас Все раздачи мультитрекерные, при нуле пиров в релизах, можете смело вставать на закачку!
 
Автор Сообщение

Vanya_o3

[Профиль] [ЛС]

Бедуин
-Жанр: драма
Год выпуска: 2011
Продолжительность: 01:35:33-Режиссёр: Игорь Волошин-В ролях: Ольга Симонова, Серафима Мигай, Михаил Евланов, Ремигиюс Сабулис, Доржи Галсанов, Анна Михалкова, Сергей Светлаков, Динара Друкарова, Светлана Смирнова, Алиса Хазанова, Владимир Шевельков, Георгий Гургулия, Ильдар Таймасов, Илья Дель-Описание: Ради спасения больной лейкозом дочки Рита решается стать суррогатной матерью для странной пары. Однако, получить деньги Рита не успевает. Лечение нельзя прерывать, поиски донора и запланированная операция по трансплантации костного мозга требуют принятия быстрых решений. Столкнувшись с бессилием врачей, Рита решается уехать в Иорданию, к бедуинам, которые, как говорят, лечат рак. Она забирает дочь из больницы, и они летят в страну, которая в итоге меняет в их жизни всё…
-Доп. информация: Приз VII Международного кинофестиваля «Евразия» (Алматы, 2011) - за лучшую женскую роль (Ольга Симонова). Фестиваль «Панорама европейского кино» (Афины, 2011) - приз зрительских симпатий.-Семпл: http://multi-up.com/725763-Качество видео: HDRip [Рип с BluRay]
Формат видео: AVI
Видео: 720х384, XviD, 25 fps, 1594 Kbps
Аудио: АС3, 448 kbps, 48.0 KHz, 6 ch

MediaInfo

General
Complete name : D:\Фильмы\Povorot.Ne.Tuda.Quadrology\Beduin.2011..avi
Format : AVI
Format/Info : Audio Video Interleave
File size : 1.37 GiB
Duration : 1h 35mn
Overall bit rate : 2 052 Kbps
Writing application : VirtualDubMod 1.5.10.2 (build 2540/release)
Writing library : VirtualDubMod build 2540/release
Video
ID : 0
Format : MPEG-4 Visual
Format profile : Advanced Simple@L5
Format settings, BVOP : 2
Format settings, QPel : No
Format settings, GMC : No warppoints
Format settings, Matrix : Default (MPEG)
Codec ID : XVID
Codec ID/Hint : XviD
Duration : 1h 35mn
Bit rate : 1 594 Kbps
Width : 720 pixels
Height : 384 pixels
Display aspect ratio : 1.85:1
Frame rate : 25.000 fps
Color space : YUV
Chroma subsampling : 4:2:0
Bit depth : 8 bits
Scan type : Progressive
Compression mode : Lossy
Bits/(Pixel*Frame) : 0.231
Stream size : 1.06 GiB (78%)
Writing library : XviD 1.2.1 (UTC 2008-12-04)
Audio
ID : 1
Format : AC-3
Format/Info : Audio Coding 3
Mode extension : CM (complete main)
Format settings, Endianness : Big
Codec ID : 2000
Duration : 1h 35mn
Bit rate mode : Constant
Bit rate : 448 Kbps
Channel(s) : 6 channels
Channel positions : Front: L C R, Side: L R, LFE
Sampling rate : 48.0 KHz
Bit depth : 16 bits
Compression mode : Lossy
Stream size : 306 MiB (22%)
Alignment : Split accross interleaves
Interleave, duration : 40 ms (1.00 video frame)
Interleave, preload duration : 500 ms
 
Показать сообщения:    

Текущее время: Сегодня 19:36

Часовой пояс: GMT



Вы не можете начинать темы
Вы не можете отвечать на сообщения
Вы не можете редактировать свои сообщения
Вы не можете удалять свои сообщения
Вы не можете голосовать в опросах
Вы не можете прикреплять файлы к сообщениям
Вы не можете скачивать файлы
Наши партнеры: интернет магазин Ивановского трикотажа textilla.ru