Важное объявление!
У Нас Все раздачи мультитрекерные, при нуле пиров в релизах, можете смело вставать на закачку!
 
Автор Сообщение

HUNTER

Стаж:
4 года 5 месяцев
Сообщений:
60844

Репутация: 101

[+] [-]
Вне форума [Профиль] [ЛС]

Беглец / The Fugitive-
Страна: США
Студия: Warner Bros. Pictures
Жанр: Боевик, триллер, криминал, детектив, приключения
Год выпуска: 1993
Продолжительность: 02:10:17
Перевод 1: Профессиональный (дублированный) Blu-ray CEE
Перевод 2: Профессиональный (дублированный) Варус Видео
Перевод 3: Профессиональный (дублированный) Ленфильм
Перевод 4: Профессиональный (многоголосый закадровый) НТВ+
Перевод 5: Профессиональный (двухголосый закадровый) НТВ
Перевод 6: Профессиональный (двухголосый закадровый) ОРТ
Перевод 7: Профессиональный (двухголосый закадровый) TV1000
Перевод 8: Одноголосый закадровый Д. Есарев
Перевод 9: Авторский (одноголосый закадровый) А. Гаврилов
Перевод 10: Авторский (одноголосый закадровый) Ю. Живов
Перевод 11: Авторский (одноголосый закадровый) диктор CDV
Перевод 12: Авторский (одноголосый закадровый) В. Горчаков
Перевод 13: Авторский (одноголосый закадровый) Л. Володарский
Cубтитры: Русские, Английские
Оригинальная аудиодорожка: Английский
Режиссер: Эндрю Дэвис / Andrew Davis
В ролях: Харрисон Форд, Томми Ли Джонс, Джо Пантольяно, Ерун Краббе, Села Уорд, Джулианна Мур, Андреас Кацулас, Дэниэл Робак, Л. Скотт Колдуэлл, Том Вуд.
Описание: Убитая жена. Однорукий мужчина. Одержимый детектив. Преследование начинается. Доктор Ричард Кимбл, чикагский хирург, ложно обвинен в убийстве своей жены.
Полный решимости доказать свою невиновность, доктор совершает побег из тюрьмы. Он хочет сам привести своих преследователей - служителей закона - к настоящему убийце. Фильм снят по мотивам популярного американского телесериала 60-х годов.-Рейтинг
[img]https://rating.kinopoisk.ru/3915.gif[/img]-Сэмпл
Тип релиза: BDRip 720p
Контейнер: MKV
Исходник: 1080p CEE Blu-ray AVC DTS-HD MA 5.1-Mont
Видео: 1280x720 (16:9), 23.976 fps, x264, ~9826 kbps | Encode by EbP
Аудио 1: Russian: 48 kHz, AC3, 3/2 (L,C,R,l,r) + LFE ch, ~640 kbps | Дубляж, Blu-ray CEE
Аудио 2: Russian: 48 kHz, AC3, 2/0 (L,R) ch, ~192 kbps | Дубляж, Варус Видео
Аудио 3: Russian: 48 kHz, AC3, 2/0 (L,R) ch, ~192 kbps | Дубляж, Ленфильм
Аудио 4: Russian: 48 kHz, AC3, 2/0 (L,R) ch, ~192 kbps | Многоголосый закадровый, НТВ+
Аудио 5: Russian: 48 kHz, AC3, 2/0 (L,R) ch, ~192 kbps | Двухголосый закадровый, НТВ
Аудио 6: Russian: 48 kHz, AC3, 2/0 (L,R) ch, ~192 kbps | Двухголосый закадровый, ОРТ
Аудио 7: Russian: 48 kHz, AC3, 2/0 (L,R) ch, ~224 kbps | Двухголосый закадровый, TV1000
Аудио 8: Russian: 48 kHz, DTS, 3/2 (L,C,R,l,r) + LFE ch, ~1509 kbps | Одноголосый закадровый, Д. Есарев
Аудио 9: Russian: 48 kHz, DTS, 3/2 (L,C,R,l,r) + LFE ch, ~1509 kbps | Одноголосый закадровый, А. Гаврилов
Аудио 10: Russian: 48 kHz, DTS, 3/2 (L,C,R,l,r) + LFE ch, ~1509 kbps | Одноголосый закадровый, Ю. Живов
Аудио 11: Russian: 48 kHz, AC3, 2/0 (L,R) ch, ~192 kbps | Одноголосый закадровый, диктор CDV
Аудио 12: Russian: 48 kHz, AC3, 3/2 (L,C,R,l,r) + LFE ch, ~448 kbps | Одноголосый закадровый, В. Горчаков
Аудио 13: Russian: 48 kHz, AC3, 2/0 (L,R) ch, ~128 kbps | Одноголосый закадровый, Л. Володарский
Аудио 14: English: 48 kHz, DTS, 3/2 (L,C,R,l,r) + LFE ch, ~1509 kbps
Аудио 15: Englsih: 48 kHz, AC3, 2/0 (L,R) ch, ~192 kbps | Commentary by Andrew Davis and Tommy Lee Jones
Субтиры: Русские, Английские (Full, SDH)
Формат субтитров: softsub (SRT)

Дополнительно

За основу релиза спасибо Skazhutin.
За дорожки А. Гаврилова и Ю. Живова спасибо участникам форума HD AVO.
Перевод Д. Есарева, доступен благодаря ресурсу "Переулок Переводмана". Заказ перевода Pr0peLLer. Работа со звуком Skazhutin.

MediaInfo

Общее
Unique ID : 223114774599196287916669097242121826493 (0xA7DA57B0EFA1E29AB4230820B00D70BD)
Complete name : E:\video_rutracker\The.Fugitive.1993.720p.BluRay.13xRus.2xEng.x264.mkv
Format : Matroska
Format version : Version 2
File size : 17,0 Гбайт
Duration : 2 ч. 10 м.
Overall bit rate : 18,6 Мбит/сек
Movie name : The Fugitive 1993 | RuTracker | igrok2012
Encoded date : UTC 2016-10-03 15:52:16
Writing application : mkvmerge v8.3.0 ('Over the Horizon') 64bit
Writing library : libebml v1.3.1 + libmatroska v1.4.2
Cover : Yes
Attachments : cover.jpg
Видео
ID : 1
Format : AVC
Format/Info : Advanced Video Codec
Format profile : High@L4.1
Format settings, CABAC : Да
Format settings, ReFrames : 9 кадров
Codec ID : V_MPEG4/ISO/AVC
Duration : 2 ч. 10 м.
Bit rate : 9826 Кбит/сек
Width : 1280 пикселей
Height : 720 пикселей
Display aspect ratio : 16:9
Frame rate mode : Постоянный
Frame rate : 23,976 (24000/1001) кадра/сек
Color space : YUV
Chroma subsampling : 4:2:0
Bit depth : 8 бит
Scan type : Прогрессивная
Bits/(Pixel*Frame) : 0.445
Stream size : 8,61 Гбайт (51%)
Title : Дубляж, Blu-ray CEE
Writing library : x264 core 138 r2359+704+48 3f879a0 tMod [8-bit@all X86_64]
Encoding settings : cabac=1 / ref=9 / deblock=1:-3:-3 / analyse=0x3:0x133 / me=umh / subme=9 / psy=1 / fade_compensate=0.00 / psy_rd=1.08:0.03 / mixed_ref=1 / me_range=16 / chroma_me=1 / trellis=2 / 8x8dct=1 / cqm=0 / deadzone=21,11 / fast_pskip=0 / chroma_qp_offset=-3 / threads=12 / lookahead_threads=2 / sliced_threads=0 / nr=0 / decimate=0 / interlaced=0 / bluray_compat=0 / constrained_intra=0 / fgo=0 / bframes=9 / b_pyramid=2 / b_adapt=2 / b_bias=0 / direct=3 / weightb=1 / open_gop=0 / weightp=2 / keyint=250 / keyint_min=23 / scenecut=40 / intra_refresh=0 / rc=2pass / mbtree=0 / bitrate=9826 / ratetol=1.0 / qcomp=0.70 / qpmin=0:0:0 / qpmax=69:69:69 / qpstep=4 / cplxblur=20.0 / qblur=0.5 / ip_ratio=1.30 / pb_ratio=1.20 / aq=3:0.74 / aq-sensitivity=10.00 / aq-factor=1.00:1.00:1.00 / aq2=0 / aq3=0
Language : English
Default : Да
Forced : Нет
Color range : Limited
Matrix coefficients : BT.709
Аудио #1
ID : 2
Format : AC-3
Format/Info : Audio Coding 3
Mode extension : CM (complete main)
Format settings, Endianness : Big
Codec ID : A_AC3
Duration : 2 ч. 10 м.
Bit rate mode : Постоянный
Bit rate : 640 Кбит/сек
Channel(s) : 6 каналов
Channel positions : Front: L C R, Side: L R, LFE
Sampling rate : 48,0 КГц
Frame rate : 31,250 кадров/сек (1536 spf)
Compression mode : С потерями
Stream size : 596 Мбайт (3%)
Title : Дубляж, Blu-ray CEE
Language : Russian
Default : Да
Forced : Нет
Аудио #2
ID : 3
Format : AC-3
Format/Info : Audio Coding 3
Mode extension : CM (complete main)
Format settings, Endianness : Big
Codec ID : A_AC3
Duration : 2 ч. 10 м.
Bit rate mode : Постоянный
Bit rate : 192 Кбит/сек
Channel(s) : 2 канала
Channel positions : Front: L R
Sampling rate : 48,0 КГц
Frame rate : 31,250 кадров/сек (1536 spf)
Compression mode : С потерями
Stream size : 179 Мбайт (1%)
Title : Дубляж, Варус Видео
Language : Russian
Default : Нет
Forced : Нет
Аудио #3
ID : 4
Format : AC-3
Format/Info : Audio Coding 3
Mode extension : CM (complete main)
Format settings, Endianness : Big
Codec ID : A_AC3
Duration : 2 ч. 10 м.
Bit rate mode : Постоянный
Bit rate : 192 Кбит/сек
Channel(s) : 2 канала
Channel positions : Front: L R
Sampling rate : 48,0 КГц
Frame rate : 31,250 кадров/сек (1536 spf)
Compression mode : С потерями
Stream size : 179 Мбайт (1%)
Title : Дубляж, Ленфильм
Language : Russian
Default : Нет
Forced : Нет
Аудио #4
ID : 5
Format : AC-3
Format/Info : Audio Coding 3
Mode extension : CM (complete main)
Format settings, Endianness : Big
Codec ID : A_AC3
Duration : 2 ч. 10 м.
Bit rate mode : Постоянный
Bit rate : 192 Кбит/сек
Channel(s) : 2 канала
Channel positions : Front: L R
Sampling rate : 48,0 КГц
Frame rate : 31,250 кадров/сек (1536 spf)
Compression mode : С потерями
Stream size : 179 Мбайт (1%)
Title : Многоголосый закадровый, НТВ+
Language : Russian
Default : Нет
Forced : Нет
Аудио #5
ID : 6
Format : AC-3
Format/Info : Audio Coding 3
Mode extension : CM (complete main)
Format settings, Endianness : Big
Codec ID : A_AC3
Duration : 2 ч. 10 м.
Bit rate mode : Постоянный
Bit rate : 192 Кбит/сек
Channel(s) : 2 канала
Channel positions : Front: L R
Sampling rate : 48,0 КГц
Frame rate : 31,250 кадров/сек (1536 spf)
Compression mode : С потерями
Stream size : 179 Мбайт (1%)
Title : Двухголосый закадровый, НТВ
Language : Russian
Default : Нет
Forced : Нет
Аудио #6
ID : 7
Format : AC-3
Format/Info : Audio Coding 3
Mode extension : CM (complete main)
Format settings, Endianness : Big
Codec ID : A_AC3
Duration : 2 ч. 10 м.
Bit rate mode : Постоянный
Bit rate : 192 Кбит/сек
Channel(s) : 2 канала
Channel positions : Front: L R
Sampling rate : 48,0 КГц
Frame rate : 31,250 кадров/сек (1536 spf)
Compression mode : С потерями
Stream size : 179 Мбайт (1%)
Title : Двухголосый закадровый, ОРТ
Language : Russian
Default : Нет
Forced : Нет
Аудио #7
ID : 8
Format : AC-3
Format/Info : Audio Coding 3
Mode extension : CM (complete main)
Format settings, Endianness : Big
Codec ID : A_AC3
Duration : 2 ч. 10 м.
Bit rate mode : Постоянный
Bit rate : 224 Кбит/сек
Channel(s) : 2 канала
Channel positions : Front: L R
Sampling rate : 48,0 КГц
Frame rate : 31,250 кадров/сек (1536 spf)
Compression mode : С потерями
Stream size : 209 Мбайт (1%)
Title : Двухголосый закадровый, TV1000
Language : Russian
Default : Нет
Forced : Нет
Аудио #8
ID : 9
Format : DTS
Format/Info : Digital Theater Systems
Mode : 16
Format settings, Endianness : Big
Codec ID : A_DTS
Duration : 2 ч. 10 м.
Bit rate mode : Постоянный
Bit rate : 1509 Кбит/сек
Channel(s) : 6 каналов
Channel positions : Front: L C R, Side: L R, LFE
Sampling rate : 48,0 КГц
Frame rate : 93,750 кадра/сек (512 spf)
Bit depth : 24 бит
Compression mode : С потерями
Stream size : 1,37 Гбайт (8%)
Title : Одноголосый закадровый, Д. Есарев
Language : Russian
Default : Нет
Forced : Нет
Аудио #9
ID : 10
Format : DTS
Format/Info : Digital Theater Systems
Mode : 16
Format settings, Endianness : Big
Codec ID : A_DTS
Duration : 2 ч. 10 м.
Bit rate mode : Постоянный
Bit rate : 1509 Кбит/сек
Channel(s) : 6 каналов
Channel positions : Front: L C R, Side: L R, LFE
Sampling rate : 48,0 КГц
Frame rate : 93,750 кадра/сек (512 spf)
Bit depth : 24 бит
Compression mode : С потерями
Stream size : 1,37 Гбайт (8%)
Title : Одноголосый закадровый, А. Гаврилов
Language : Russian
Default : Нет
Forced : Нет
Аудио #10
ID : 11
Format : DTS
Format/Info : Digital Theater Systems
Mode : 16
Format settings, Endianness : Big
Codec ID : A_DTS
Duration : 2 ч. 10 м.
Bit rate mode : Постоянный
Bit rate : 1509 Кбит/сек
Channel(s) : 6 каналов
Channel positions : Front: L C R, Side: L R, LFE
Sampling rate : 48,0 КГц
Frame rate : 93,750 кадра/сек (512 spf)
Bit depth : 24 бит
Compression mode : С потерями
Stream size : 1,37 Гбайт (8%)
Title : Одноголосый закадровый, Живов
Language : Russian
Default : Нет
Forced : Нет
Аудио #11
ID : 12
Format : AC-3
Format/Info : Audio Coding 3
Mode extension : CM (complete main)
Format settings, Endianness : Big
Codec ID : A_AC3
Duration : 2 ч. 10 м.
Bit rate mode : Постоянный
Bit rate : 192 Кбит/сек
Channel(s) : 2 канала
Channel positions : Front: L R
Sampling rate : 48,0 КГц
Frame rate : 31,250 кадров/сек (1536 spf)
Compression mode : С потерями
Stream size : 179 Мбайт (1%)
Title : Одноголосый закадровый, диктор CDV
Language : Russian
Default : Нет
Forced : Нет
Аудио #12
ID : 13
Format : AC-3
Format/Info : Audio Coding 3
Mode extension : CM (complete main)
Format settings, Endianness : Big
Codec ID : A_AC3
Duration : 2 ч. 10 м.
Bit rate mode : Постоянный
Bit rate : 448 Кбит/сек
Channel(s) : 6 каналов
Channel positions : Front: L C R, Side: L R, LFE
Sampling rate : 48,0 КГц
Frame rate : 31,250 кадров/сек (1536 spf)
Compression mode : С потерями
Stream size : 418 Мбайт (2%)
Title : Одноголосый закадровый, В. Горчаков
Language : Russian
Default : Нет
Forced : Нет
Аудио #13
ID : 14
Format : AC-3
Format/Info : Audio Coding 3
Mode extension : CM (complete main)
Format settings, Endianness : Big
Codec ID : A_AC3
Duration : 2 ч. 10 м.
Bit rate mode : Постоянный
Bit rate : 128 Кбит/сек
Channel(s) : 2 канала
Channel positions : Front: L R
Sampling rate : 48,0 КГц
Frame rate : 31,250 кадров/сек (1536 spf)
Compression mode : С потерями
Stream size : 119 Мбайт (1%)
Title : Одноголосый закадровый, Л. Володарский
Language : Russian
Default : Нет
Forced : Нет
Аудио #14
ID : 15
Format : DTS
Format/Info : Digital Theater Systems
Mode : 16
Format settings, Endianness : Big
Codec ID : A_DTS
Duration : 2 ч. 10 м.
Bit rate mode : Постоянный
Bit rate : 1509 Кбит/сек
Channel(s) : 6 каналов
Channel positions : Front: L C R, Side: L R, LFE
Sampling rate : 48,0 КГц
Frame rate : 93,750 кадра/сек (512 spf)
Bit depth : 24 бит
Compression mode : С потерями
Stream size : 1,37 Гбайт (8%)
Language : English
Default : Нет
Forced : Нет
Аудио #15
ID : 16
Format : AC-3
Format/Info : Audio Coding 3
Format profile : Dolby Digital
Mode extension : CM (complete main)
Format settings, Endianness : Big
Codec ID : A_AC3
Duration : 2 ч. 10 м.
Bit rate mode : Постоянный
Bit rate : 192 Кбит/сек
Channel(s) : 2 канала
Channel positions : Front: L R
Sampling rate : 48,0 КГц
Frame rate : 31,250 кадров/сек (1536 spf)
Compression mode : С потерями
Stream size : 179 Мбайт (1%)
Title : Commentary by Andrew Davis and Tommy Lee Jones
Language : English
Default : Нет
Forced : Нет
Текст #1
ID : 17
Format : UTF-8
Codec ID : S_TEXT/UTF8
Codec ID/Info : UTF-8 Plain Text
Language : Russian
Default : Нет
Forced : Нет
Текст #2
ID : 18
Format : UTF-8
Codec ID : S_TEXT/UTF8
Codec ID/Info : UTF-8 Plain Text
Language : English
Default : Нет
Forced : Нет
Текст #3
ID : 19
Format : UTF-8
Codec ID : S_TEXT/UTF8
Codec ID/Info : UTF-8 Plain Text
Title : SDH
Language : English
Default : Нет
Forced : Нет
Меню
00:00:00.000 : en:00:00:00.000
00:04:51.458 : en:00:04:51.458
00:09:40.955 : en:00:09:40.955
00:12:59.779 : en:00:12:59.779
00:14:51.599 : en:00:14:51.599
00:16:36.746 : en:00:16:36.746
00:18:54.342 : en:00:18:54.342
00:20:22.012 : en:00:20:22.012
00:23:10.306 : en:00:23:10.306
00:25:36.076 : en:00:25:36.076
00:26:31.632 : en:00:26:31.632
00:29:48.328 : en:00:29:48.328
00:31:27.761 : en:00:31:27.761
00:34:23.979 : en:00:34:23.979
00:36:46.996 : en:00:36:46.996
00:38:04.616 : en:00:38:04.616
00:39:43.798 : en:00:39:43.798
00:42:20.913 : en:00:42:20.913
00:45:36.776 : en:00:45:36.776
00:48:37.081 : en:00:48:37.081
00:50:08.214 : en:00:50:08.214
00:53:28.580 : en:00:53:28.580
00:56:02.693 : en:00:56:02.693
00:59:21.975 : en:00:59:21.975
01:02:54.646 : en:01:02:54.646
01:07:46.312 : en:01:07:46.312
01:13:51.344 : en:01:13:51.344
01:15:43.414 : en:01:15:43.414
01:19:18.295 : en:01:19:18.295
01:21:55.911 : en:01:21:55.911
01:24:44.663 : en:01:24:44.663
01:29:49.134 : en:01:29:49.134
01:35:28.598 : en:01:35:28.598
01:37:01.065 : en:01:37:01.065
01:40:55.258 : en:01:40:55.258
01:44:26.302 : en:01:44:26.302
01:50:06.183 : en:01:50:06.183
01:54:45.295 : en:01:54:45.295
01:58:30.270 : en:01:58:30.270
02:02:43.773 : en:02:02:43.773
02:04:07.023 : en:02:04:07.023
02:05:52.462 : en:02:05:52.462

Скриншоты

Скриншоты сравнения

EbP NEW | [url=viewtopic.php?t=3508470]EbP OLD[/url]


_________________
Показать сообщения:    

Текущее время: Сегодня 15:47

Часовой пояс: GMT



Вы не можете начинать темы
Вы не можете отвечать на сообщения
Вы не можете редактировать свои сообщения
Вы не можете удалять свои сообщения
Вы не можете голосовать в опросах
Вы не можете прикреплять файлы к сообщениям
Вы не можете скачивать файлы
Наши партнеры: интернет магазин Ивановского трикотажа textilla.ru