Важное объявление!
У Нас Все раздачи мультитрекерные, при нуле пиров в релизах, можете смело вставать на закачку!
 
Автор Сообщение

HUNTER

Стаж:
4 года 10 месяцев
Сообщений:
65492

Репутация: 101

[+] [-]
Вне форума [Профиль] [ЛС]

Беги / Run
Год выпуска: 2013
Страна: США
Студия: 224 Entertainment, Intrinsic Value Films
Жанр: Боевик, триллер, мелодрама
Продолжительность: 01:30:33-Перевод: Профессиональный (дублированный)
Русские субтитры: нет
Режиссер : Симон Бартесаги
В ролях: Уильям Моусли, Адриан Пасдар, Келси Чоу, Крейг Хенингсен, Эдоардо Баллерини, Эрик Робертс, Сол Стайн, Джон Фреда, Джозеф Перрино, Альберт Валладарес-Описание: В нью-йоркской школе появляется таинственный ученик по имени Дэниэл. Он виртуозно владеет паркуром и сразу находит себе друзей по интересам, с которыми он может «летать» над городом, пока тот спит. Среди новых друзей прекрасная Эмили, которая безоглядно влюбляется в новичка. Но откуда приехал Дэниэл? Кто он такой? Где он жил раньше? Ведь у него полно секретов, которые он не доверяет своим друзьям. Но тайны прошлого не дремлют и Дэниэлу придётся бороться не только за свою жизнь, но и за жизнь своих новых друзей.-Трейлер: http://www.kinopoisk.ru/film/665366/-Качество: BDrip
Контейнер: MKV
Формат 3D: Half OverUnder / Вертикальная анаморфная стереопара
Порядок ракурсов: левый ракурс первый
Видео кодек: h.264
Аудио кодек: AC3
Видео: MPEG-4 AVC, 7000 Кбит/с, 1920x1080
Аудио: Русский (AC3, 6 ch, 448 Кбит/с)
Аудио 2: английский (AC3, 6 ch, 640 Кбит/с)

MediaInfo

Format : Matroska
File size : 5.12 GiB
Duration : 1h 30mn
Overall bit rate : 8 092 Kbps
Movie name : [torrent3d.ru]
Encoded date : UTC 2013-10-09 23:54:08
Writing application : mkvmerge v4.0.0 ('The Stars were mine') сборка от Jun 6 2010 16:18:42
Writing library : libebml v1.0.0 + libmatroska v1.0.0
Cover : Yes / Yes
Video
ID : 1
Format : AVC
Format/Info : Advanced Video Codec
Format profile : High@L4.1
Format settings, CABAC : Yes
Format settings, ReFrames : 4 frames
Format settings, GOP : M=4, N=16
Muxing mode : Container profile=Unknown@4.1
Codec ID : V_MPEG4/ISO/AVC
Duration : 1h 30mn
Bit rate : 7 000 Kbps
Width : 1 920 pixels
Height : 1 080 pixels
Display aspect ratio : 16:9
Frame rate : 23.976 fps
Color space : YUV
Chroma subsampling : 4:2:0
Bit depth : 8 bits
Scan type : Progressive
Bits/(Pixel*Frame) : 0.141
Stream size : 4.33 GiB (85%)
Title : 3D Half Top/Bottom, Left first
Writing library : x264 core 130 r2273 b3065e6
Encoding settings : cabac=1 / ref=3 / deblock=1:0:0 / analyse=0x3:0x113 / me=hex / subme=7 / psy=1 / psy_rd=1.00:0.00 / mixed_ref=1 / me_range=16 / chroma_me=1 / trellis=1 / 8x8dct=1 / cqm=0 / deadzone=21,11 / fast_pskip=1 / chroma_qp_offset=-2 / threads=4 / lookahead_threads=1 / sliced_threads=0 / nr=0 / decimate=1 / interlaced=0 / bluray_compat=0 / constrained_intra=0 / bframes=3 / b_pyramid=2 / b_adapt=1 / b_bias=0 / direct=1 / weightb=1 / open_gop=0 / weightp=2 / keyint=96 / keyint_min=9 / scenecut=40 / intra_refresh=0 / rc_lookahead=40 / rc=2pass / mbtree=1 / bitrate=7000 / ratetol=1.0 / qcomp=0.60 / qpmin=0 / qpmax=69 / qpstep=4 / cplxblur=20.0 / qblur=0.5 / ip_ratio=1.40 / aq=1:1.00
Audio #1
ID : 2
Format : AC-3
Format/Info : Audio Coding 3
Mode extension : CM (complete main)
Codec ID : A_AC3
Duration : 1h 30mn
Bit rate mode : Constant
Bit rate : 448 Kbps
Channel(s) : 6 channels
Channel positions : Front: L C R, Side: L R, LFE
Sampling rate : 48.0 KHz
Stream size : 290 MiB (6%)
Audio #2
ID : 3
Format : AC-3
Format/Info : Audio Coding 3
Mode extension : CM (complete main)
Codec ID : A_AC3
Duration : 1h 30mn
Bit rate mode : Constant
Bit rate : 640 Kbps
Channel(s) : 6 channels
Channel positions : Front: L C R, Side: L R, LFE
Sampling rate : 48.0 KHz
Stream size : 415 MiB (8%)

Скриншоты


_________________
Показать сообщения:    

Текущее время: Сегодня 03:39

Часовой пояс: GMT



Вы не можете начинать темы
Вы не можете отвечать на сообщения
Вы не можете редактировать свои сообщения
Вы не можете удалять свои сообщения
Вы не можете голосовать в опросах
Вы не можете прикреплять файлы к сообщениям
Вы не можете скачивать файлы