Беар Гриллс: Испытание страхом / Bear Grylls: Breaking Point (Дэн Этеридж / Dan Etheridge) / 1 сезон / 1-6 серия из (6)[2014, ТВ-Шоу, Приключения, HDTVRip] :: Ивановский Торрент трекер
Важное объявление!
У Нас Все раздачи мультитрекерные, при нуле пиров в релизах, можете смело вставать на закачку!
Статистика раздачи
Размер:     |    Зарегистрирован:     |    Скачан:     |   
Нет
 
     
 
 
Автор Сообщение

HUNTER

Стаж:
4 года 11 месяцев
Сообщений:
66066

Репутация: 101

[+] [-]
Вне форума [Профиль] [ЛС]

Беар Гриллс: Испытание страхом / Bear Grylls: Breaking Point
-Дата/Год выпуска: 2014
Страна: Великобритания
Жанр: ТВ-Шоу, Приключения
Продолжительность: ~00:43:00
Перевод: Профессиональный (многоголосый, закадровый) -
Русские субтитры: нет-Режиссер: Дэн Этеридж / Dan Etheridge-Описание: По статистике, примерно 13% населения планеты страдает фобиями – необъяснимой, патологической боязнью самых разных предметов или ситуаций, от вполне обыденного страха перед авиаперелетами до иррационального ужаса при виде пуговиц. В новой программе «Беар Гриллс: Испытание страхом» знаменитый специалист в области выживания приходит на помощь тем, кто хочет избавиться от фобии, но использует при этом весьма жесткие методы.
Беар Гриллс уверен, что страх лечится погружением в страх: он создает для своих подопечных их персональный ад и помогает им этот ад преодолеть. Конечно, он работает только с теми, кто знает, на что идет – избавиться от фобии можно только при условии, что человек хочет этого сам. Посмотрите на людей, которые делают самый смелый шаг в своей жизни и вступают в бой со своим самым большим кошмаром.-Релиз от: -Качество: HDTVRip [Сэмпл]
Формат: AVI
Видео: Xvid 720x400 30fps 8bit 1 530 Kbps
Аудио: Dolby AC3 48000Hz stereo 2ch 192kbps

Скриншоты

MediaInfo

Формат : AVIФормат/Информация : Audio Video InterleaveРазмер файла : 545 МбайтПродолжительность : 43 м.Общий поток : 1734 Кбит/секПрограмма кодирования : VirtualDubMod 1.5.10.3 | www.virtualdub-fr.org || (build 2550/release)Библиотека кодирования : VirtualDubMod build 2550/release
ВидеоИдентификатор : 0Формат : MPEG-4 VisualПрофиль формата : Advanced Simple@L5Параметр BVOP формата : 1Параметр QPel формата : НетПараметр GMC формата : Без точки переходаПараметр матрицы формата : Default (H.263)Идентификатор кодека : XVIDИдентификатор кодека/Подсказка : XviDПродолжительность : 43 м.Битрейт : 1530 Кбит/секШирина : 720 пикселейВысота : 400 пикселейСоотношение сторон : 16:9Частота кадров : 30,000 кадров/секЦветовое пространство : YUVСубдискретизация насыщенности : 4:2:0Битовая глубина : 8 битТип развёртки : ПрогрессивнаяМетод сжатия : С потерямиБит/(Пиксели*Кадры) : 0.177Размер потока : 481 Мбайт (88%)Библиотека кодирования : XviD 1.2.1 (UTC 2008-12-04)
АудиоИдентификатор : 1Формат : AC-3Формат/Информация : Audio Coding 3Расширение режима : CM (complete main)Параметр Endianness формата : BigИдентификатор кодека : 2000Продолжительность : 43 м.Вид битрейта : ПостоянныйБитрейт : 192 Кбит/секКаналы : 2 каналаРасположение каналов : Front: L RЧастота : 48,0 КГцМетод сжатия : С потерямиРазмер потока : 60,4 Мбайт (11%)Выравнивание : Разделение по промежуткамПродолжительность промежутка : 33 мс. (1,00 видеокадр)Время предзагрузки промежутка : 500 мс.

_________________
Показать сообщения:    

Текущее время: Сегодня 19:17

Часовой пояс: GMT



Вы не можете начинать темы
Вы не можете отвечать на сообщения
Вы не можете редактировать свои сообщения
Вы не можете удалять свои сообщения
Вы не можете голосовать в опросах
Вы не можете прикреплять файлы к сообщениям
Вы не можете скачивать файлы