Батальонъ (Дмитрий Месхиев) [2015, драма, военный, история, WEB-DL 720p] [iTunes] :: Ивановский Торрент трекер
Важное объявление!
У Нас Все раздачи мультитрекерные, при нуле пиров в релизах, можете смело вставать на закачку!
Статистика раздачи
Размер:     |    Зарегистрирован:     |    Скачан:     |   
Нет
 
     
 
 
Автор Сообщение

HUNTER

Стаж:
4 года 11 месяцев
Сообщений:
66052

Репутация: 101

[+] [-]
Вне форума [Профиль] [ЛС]

Батальонъ--

  • Год выпуска: 2015
  • Страна: Россия
  • Жанр: драма, военный, история
  • Продолжительность: 02:03:45
  • Перевод: Оригинал [iTunes]
  • Субтитры: Нет
  • В ролях: Мария Аронова, Мария Кожевникова, Ирина Рахманова, Марат Башаров, Янина Малинчик, Евгений Дятлов, Алёна Кучкова, Валерия Шкирандо, Николай Аузин
  • Режиссёр: Дмитрий Месхиев

    Весна 1917-го года. Февральская революция изменила жизнь России и ход Великой войны. Государь уже отрёкся от престола. В окопах, где противостояние с немцами длится уже не один год, вовсю ведут свою пропаганду большевики. Они призывают к миру с неприятелем. Российское офицерство фактически ничего не может решить без одобрения так называемых солдатских комитетов. Армия находится на пороге окончательного разложения.
    По приказу Временного правительства для поднятия боевого духа создаётся женский «Батальон смерти» под командованием георгиевского кавалера Марии Бочкарёвой. Своей службой «Батальон смерти» подаёт пример храбрости, мужества и спокойствия, поднимает дух солдат и доказывает, что каждая из этих женщин-героев достойна звания воина русской армии.--
  • Качество: WEB-DL 720p
  • Формат: MKV
  • Видео кодек: AVC
  • Аудио кодек: AC3
  • Видео: AVC, 960x532, 4004 Кбит/сек, 25.000 кадр/сек
  • Аудио: АС3, 384 Кбит/сек, 6 канала(ов), 48,0 КГц
--

Рейтинг

MediaInfo

General
Unique ID : 183036508641667983617386776763587599067 (0x89B38C9E5436775794895B857C679ADB)
Complete name : C:\Users\feedback\Desktop\baTaL10H.2015.WEB-DL.720p.mkv
Format : Matroska
Format version : Version 4 / Version 2
File size : 3.87 GiB
Duration : 2h 3mn
Overall bit rate : 4 478 Kbps
Encoded date : UTC 2015-07-09 21:04:21
Writing application : mkvmerge v6.5.0 ('Isn't she lovely') built on Oct 20 2013 12:50:05
Writing library : libebml v1.3.0 + libmatroska v1.4.1
Video
ID : 1
Format : AVC
Format/Info : Advanced Video Codec
Format profile : Main@L3.1
Format settings, CABAC : No
Format settings, ReFrames : 2 frames
Codec ID : V_MPEG4/ISO/AVC
Duration : 2h 3mn
Bit rate : 4 004 Kbps
Width : 960 pixels
Height : 532 pixels
Display aspect ratio : 2.40:1
Frame rate mode : Constant
Frame rate : 25.000 fps
Color space : YUV
Chroma subsampling : 4:2:0
Bit depth : 8 bits
Scan type : Progressive
Bits/(Pixel*Frame) : 0.314
Stream size : 3.46 GiB (89%)
Language : Russian
Default : Yes
Forced : No
Color primaries : BT.709
Transfer characteristics : BT.709
Matrix coefficients : BT.709
Color range : Limited
Audio
ID : 2
Format : AC-3
Format/Info : Audio Coding 3
Mode extension : CM (complete main)
Format settings, Endianness : Big
Codec ID : A_AC3
Duration : 2h 3mn
Bit rate mode : Constant
Bit rate : 384 Kbps
Channel(s) : 6 channels
Channel positions : Front: L C R, Side: L R, LFE
Sampling rate : 48.0 KHz
Bit depth : 16 bits
Compression mode : Lossy
Stream size : 340 MiB (9%)
Language : Russian
Default : Yes
Forced : No
Menu
00:00:00.000 : en:Глава 1
00:07:52.000 : en:Глава 2
00:11:50.000 : en:Глава 3
00:17:16.000 : en:Глава 4
00:20:48.000 : en:Глава 5
00:24:37.000 : en:Глава 6
00:29:32.000 : en:Глава 7
00:36:08.000 : en:Глава 8
00:41:19.000 : en:Глава 9
00:46:39.000 : en:Глава 10
00:53:45.000 : en:Глава 11
01:02:01.000 : en:Глава 12
01:09:03.000 : en:Глава 13
01:17:57.000 : en:Глава 14
01:26:23.000 : en:Глава 15
01:34:31.000 : en:Глава 16
01:39:20.000 : en:Глава 17
01:44:13.000 : en:Глава 18
01:48:33.000 : en:Глава 19
01:52:00.000 : en:Глава 20

Скриншоты:




_________________
Показать сообщения:    

Текущее время: Сегодня 20:58

Часовой пояс: GMT



Вы не можете начинать темы
Вы не можете отвечать на сообщения
Вы не можете редактировать свои сообщения
Вы не можете удалять свои сообщения
Вы не можете голосовать в опросах
Вы не можете прикреплять файлы к сообщениям
Вы не можете скачивать файлы