Важное объявление!
У Нас Все раздачи мультитрекерные, при нуле пиров в релизах, можете смело вставать на закачку!
 
Автор Сообщение

HUNTER

Стаж:
4 года 8 месяцев
Сообщений:
62003

Репутация: 101

[+] [-]
Вне форума [Профиль] [ЛС]

Бархатное утро / Some Velvet Morning
Страна: США
Жанр: драма
Год выпуска: 2013
Продолжительность: 01:19:33
Перевод: Профессиональный (двухголосый закадровый)
Cубтитры: нет
Оригинальная аудиодорожка: нет
Режиссер: Нил ЛаБут / Neil LaBute
В ролях: Стэнли Туччи, Элис Ив
Описание: Молодая и красивая Вельвет наслаждается расслабляющим утром в своей Нью-Йоркской квартире, когда Фред мрачно прерывает ее. Он пришел с чемоданом… И большими надеждами. За почти четыре года о Фреде не было ни слуху ни духу, и Вельвет сильно удивлена его визиту. Фред раскрывает причину своего внезапного появления. Тяжесть встречи перерастает в нечто больше, достигая своего апогея.
Доп.информация: HDTVRIp ---> [url=viewtopic.php?t=5271267]http://rutracker.org/forum/viewtopic.php?t=5271267[/url]
Сэмпл: http://multi-up.com/1114524
[img]https://rating.kinopoisk.ru/690028.gif[/img]
Тип релиза: HDTV 1080i
Контейнер: TS
Видео: AVC/H.264, PAL, 1920х1080 (16:9), 25 fps, 8212 Кбит/сек
Аудио: русский, MP2, 48000 Hz, 192 Кбит/сек, 2 ch

MediaInfo

Общее
Идентификатор : 1 (0x1)
Полное имя : C:\Users\User\Desktop\Some Velvet Morning.ts
Формат : MPEG-TS
Размер файла : 4,91 Гбайт
Продолжительность : 1 ч. 19 м.
Режим общего битрейта : Переменный
Общий поток : 8843 Кбит/сек
Максимальный общий битрейт : 35,5 Мбит/сек
Видео
Идентификатор : 4113 (0x1011)
Идентификатор меню : 1 (0x1)
Формат : AVC
Формат/Информация : Advanced Video Codec
Профиль формата : Main@L4.0
Параметр CABAC формата : Да
Параметр ReFrames формата : 4 кадра
Параметр GOP формата : M=1, N=32
Идентификатор кодека : 27
Продолжительность : 1 ч. 19 м.
Вид битрейта : Переменный
Битрейт : 8212 Кбит/сек
Максимальный битрейт : 40,0 Мбит/сек
Ширина : 1920 пикселей
Высота : 1080 пикселей
Соотношение сторон : 16:9
Частота кадров : 25,000 кадров/сек
Цветовое пространство : YUV
Субдискретизация насыщенности : 4:2:0
Битовая глубина : 8 бит
Тип развёртки : Чересстрочная
Порядок развёртки : Верхнее поле первое
Бит/(Пиксели*Кадры) : 0.158
Размер потока : 4,56 Гбайт (93%)
colour_range : Limited
Аудио
Идентификатор : 4352 (0x1100)
Идентификатор меню : 1 (0x1)
Формат : MPEG Audio
Версия формата : Version 1
Профиль формата : Layer 2
Идентификатор кодека : 4
Продолжительность : 1 ч. 19 м.
Вид битрейта : Постоянный
Битрейт : 192 Кбит/сек
Каналы : 2 канала
Частота : 48,0 КГц
Метод сжатия : С потерями
Размер потока : 109 Мбайт (2%)
Язык : Russian

Скриншот с названием фильма

Скриншоты


_________________
Показать сообщения:    

Текущее время: Сегодня 12:07

Часовой пояс: GMT



Вы не можете начинать темы
Вы не можете отвечать на сообщения
Вы не можете редактировать свои сообщения
Вы не можете удалять свои сообщения
Вы не можете голосовать в опросах
Вы не можете прикреплять файлы к сообщениям
Вы не можете скачивать файлы
Наши партнеры: интернет магазин Ивановского трикотажа textilla.ru